<?xml version="1.0" standalone="no"?>
<!DOCTYPE svg PUBLIC "-//W3C//DTD SVG 1.1//EN" "http://www.w3.org/Graphics/SVG/1.1/DTD/svg11.dtd" >
<svg xmlns="http://www.w3.org/2000/svg" xmlns:xlink="http://www.w3.org/1999/xlink" version="1.1">
<metadata>
Created by FontForge 20170731 at Wed Oct 21 18:49:17 2020
 By Aleksey,,,
Copyright (c) 2018 by Benjamin Critton &#38; Colophon Foundry. All rights reserved.
</metadata>
<defs>
<font id="MabryPro-Regular" horiz-adv-x="0" >
  <font-face 
    font-family="Mabry Pro"
    font-weight="400"
    font-stretch="normal"
    units-per-em="2048"
    panose-1="2 13 5 3 4 0 2 4 3 3"
    ascent="1622"
    descent="-426"
    x-height="971"
    cap-height="1434"
    bbox="-1640 -528 3537 2163"
    underline-thickness="126"
    underline-position="-454"
    unicode-range="U+000D-1F610"
  />
<missing-glyph horiz-adv-x="1208" 
d="M92 0v1434h1024v-1434h-1024zM604 852l277 448h-553zM225 1198v-962l295 481zM983 236v962l-297 -481zM328 133h553l-277 449z" />
    <glyph glyph-name="f_f" unicode="ff" horiz-adv-x="1290" 
d="M240 0v821h-217v150h217v147q0 154 91 245t249 91q84 0 151.5 -30t99.5 -81q72 111 236 111q156 0 239 -78t83 -209q0 -27 -3 -45h-165q2 10 2 37q0 69 -42 107.5t-114 38.5q-154 0 -154 -191v-143h275v-150h-275v-821h-176v821h-319v-821h-178zM418 971h319v172
q0 80 -40.5 121t-114.5 41q-78 0 -121 -50.5t-43 -142.5v-141z" />
    <glyph glyph-name="fi" unicode="fi" horiz-adv-x="1038" 
d="M913 971v-971h-178v821h-319v-821h-176v821h-217v150h217v147q0 155 86.5 245.5t242.5 90.5t239 -78t83 -209q0 -33 -2 -45h-166l2 37q0 69 -42 107.5t-114 38.5q-153 0 -153 -191v-143h497z" />
    <glyph glyph-name="fl" unicode="fl" horiz-adv-x="1050" 
d="M240 0v821h-217v150h217v162q0 149 87.5 235t250.5 86q161 0 248 -86t87 -235v-1133h-176v1126q0 86 -41 132.5t-118 46.5q-79 0 -119.5 -46.5t-40.5 -132.5v-155h207v-150h-207v-821h-178z" />
    <glyph glyph-name="f_f_i" unicode="ffi" horiz-adv-x="1538" 
d="M240 0v821h-217v150h217v147q0 154 91 245t249 91q84 0 150.5 -28.5t100.5 -82.5q77 111 236 111q156 0 239 -78t83 -209q0 -27 -3 -45h-165l2 37q0 69 -42 107.5t-114 38.5q-154 0 -154 -191v-143h498v-971h-178v821h-320v-821h-176v821h-319v-821h-178zM418 971h319
v172q0 80 -40.5 121t-114.5 41q-78 0 -121 -50.5t-43 -142.5v-141z" />
    <glyph glyph-name="f_f_l" unicode="ffl" horiz-adv-x="1548" 
d="M240 0v821h-217v150h217v147q0 154 91 245t249 91q176 0 249 -111q35 54 98.5 82.5t145.5 28.5q163 0 250.5 -86t87.5 -235v-1133h-178v1126q0 86 -40.5 132.5t-119.5 46.5q-77 0 -118.5 -47t-41.5 -132v-155h209v-150h-209v-821h-176v821h-319v-821h-178zM418 971h319
v172q0 80 -40.5 121t-114.5 41q-78 0 -121 -50.5t-43 -142.5v-141z" />
    <glyph glyph-name=".notdef" horiz-adv-x="1208" 
d="M92 0v1434h1024v-1434h-1024zM604 852l277 448h-553zM225 1198v-962l295 481zM983 236v962l-297 -481zM328 133h553l-277 449z" />
    <glyph glyph-name=".null" 
 />
    <glyph glyph-name="nonmarkingreturn" horiz-adv-x="682" 
 />
    <glyph glyph-name="CR" unicode="&#xd;" horiz-adv-x="501" 
 />
    <glyph glyph-name="space" unicode=" " horiz-adv-x="501" 
 />
    <glyph glyph-name="exclam" unicode="!" horiz-adv-x="483" 
d="M154 358v1076h176v-1076h-176zM135 0v215h213v-215h-213z" />
    <glyph glyph-name="quotedbl" unicode="&#x22;" horiz-adv-x="720" 
d="M156 952l-45 262v220h188v-220l-45 -262h-98zM467 952l-45 262v220h188v-220l-45 -262h-98z" />
    <glyph glyph-name="numbersign" unicode="#" horiz-adv-x="1607" 
d="M418 426h-309v160h342l51 260h-332v160h365l86 428h167l-86 -428h297l86 428h168l-86 -428h332v-160h-364l-52 -260h355v-160h-387l-84 -426h-168l84 426h-297l-84 -426h-168zM618 586h297l52 260h-297z" />
    <glyph glyph-name="dollar" unicode="$" horiz-adv-x="1275" 
d="M754 -16v-185h-170v187q-187 24 -326.5 134.5t-198.5 301.5l168 92q88 -307 357 -354v499q-410 95 -410 414q0 143 114 251t296 126v184h170v-188q144 -24 249 -109t154 -223l-166 -90q-59 200 -237 246v-467q232 -44 341 -142.5t109 -257.5q0 -173 -125 -286
q-121 -112 -325 -133zM584 840v438q-104 -10 -166 -65.5t-62 -137.5q0 -88 56 -143.5t172 -91.5zM1022 387q0 92 -61 147.5t-207 90.5v-469q126 13 197 75.5t71 155.5z" />
    <glyph glyph-name="percent" unicode="%" horiz-adv-x="1720" 
d="M78 1092q0 157 100 259.5t260 102.5t261.5 -102.5t101.5 -259.5t-101.5 -260t-261.5 -103t-260 103t-100 260zM647 1092q0 98 -57.5 159.5t-151.5 61.5q-92 0 -149.5 -61.5t-57.5 -159.5t57.5 -160t149.5 -62q93 0 151 61.5t58 160.5zM393 172l-104 107l1022 978
l104 -106zM920 342q0 157 101 260t261 103t260 -103t100 -260t-100 -259.5t-260 -102.5t-261 102.5t-101 259.5zM1489 342q0 98 -57.5 159.5t-149.5 61.5q-94 0 -151.5 -61.5t-57.5 -159.5t57.5 -159.5t151.5 -61.5q92 0 149.5 61.5t57.5 159.5z" />
    <glyph glyph-name="ampersand" unicode="&#x26;" horiz-adv-x="1636" 
d="M1444 219l121 -110q-86 -129 -250 -129q-81 0 -143.5 30.5t-131.5 100.5q-171 -131 -434 -131q-225 0 -361 121.5t-136 320.5q0 289 313 416q-53 68 -78 132.5t-25 141.5q0 151 104.5 246.5t266.5 95.5q163 0 256.5 -91t93.5 -226q0 -134 -87 -228t-253 -141l351 -406
q125 180 137 488l172 -14q-27 -382 -197 -603q82 -88 162 -88q72 0 119 74zM492 1114q0 -62 22.5 -110.5t79.5 -112.5q154 40 212 94t58 143q0 73 -49.5 121.5t-128.5 48.5q-86 0 -140 -52t-54 -132zM631 152q170 0 297 86l-404 477q-124 -49 -179.5 -119t-55.5 -174
q0 -124 91.5 -197t250.5 -73z" />
    <glyph glyph-name="quotesingle" unicode="'" horiz-adv-x="409" 
d="M156 952l-45 262v220h188v-220l-45 -262h-98z" />
    <glyph glyph-name="parenleft" unicode="(" horiz-adv-x="854" 
d="M92 717q0 352 168.5 606t478.5 406l70 -142q-555 -272 -555 -870q0 -599 555 -871l-70 -141q-310 152 -478.5 406t-168.5 606z" />
    <glyph glyph-name="parenright" unicode=")" horiz-adv-x="854" 
d="M602 717q0 598 -555 870l70 142q310 -152 478.5 -406t168.5 -606t-168.5 -606t-478.5 -406l-70 141q555 272 555 871z" />
    <glyph glyph-name="asterisk" unicode="*" horiz-adv-x="913" 
d="M375 1481h164v-146l-64 -196l176 125l137 45l50 -156l-138 -45h-213l170 -123l84 -117l-133 -94l-84 117l-67 205l-68 -205l-84 -117l-135 94l86 117l170 123h-215l-135 45l49 156l137 -45l176 -125l-63 196v146z" />
    <glyph glyph-name="plus" unicode="+" horiz-adv-x="1163" 
d="M131 692h373v375h155v-375h375v-155h-375v-373h-155v373h-373v155z" />
    <glyph glyph-name="comma" unicode="," horiz-adv-x="483" 
d="M68 -211l18 98q38 -18 80 -18q80 0 80 68q0 63 -74 63h-37v215h213v-268q0 -176 -180 -176q-54 0 -100 18z" />
    <glyph glyph-name="hyphen" unicode="-" horiz-adv-x="739" 
d="M100 598h539v-160h-539v160z" />
    <glyph glyph-name="period" unicode="." horiz-adv-x="483" 
d="M135 215h213v-215h-213v215z" />
    <glyph glyph-name="slash" unicode="/" horiz-adv-x="1044" 
d="M795 1698l149 -56l-694 -1906l-150 55z" />
    <glyph glyph-name="zero" unicode="0" horiz-adv-x="1314" 
d="M84 717q0 336 156 536.5t417 200.5q263 0 419.5 -200t156.5 -537t-156.5 -537t-419.5 -200q-261 0 -417 200.5t-156 536.5zM1055 717q0 253 -105 416q-100 161 -293 161q-189 0 -292 -161q-105 -163 -105 -416t105 -416q104 -162 292 -162q192 0 293 162q105 163 105 416
z" />
    <glyph glyph-name="one" unicode="1" horiz-adv-x="765" 
d="M432 0v1153q-44 -100 -145 -164q-103 -65 -207 -74l-35 183q160 17 266 103.5t142 232.5h157v-1434h-178z" />
    <glyph glyph-name="two" unicode="2" horiz-adv-x="1189" 
d="M510 575q164 85 227 127q86 57 130 127t44 166q0 135 -89 217t-240 82q-137 0 -228.5 -84.5t-91.5 -203.5q0 -124 80 -224l-152 -98q-108 141 -108 309q0 194 141.5 327.5t366.5 133.5q231 0 365.5 -124.5t134.5 -325.5q0 -171 -85.5 -285t-265.5 -205
q-124 -66 -213 -117q-74 -42 -127.5 -102t-64.5 -129h758v-166h-979q0 141 49 250.5t133.5 185t214.5 139.5z" />
    <glyph glyph-name="three" unicode="3" horiz-adv-x="1169" 
d="M45 393l170 76q19 -148 114.5 -236t243.5 -88q139 0 235.5 88.5t96.5 229.5q0 151 -88.5 237t-236.5 86q-59 0 -114 -19t-91 -52l-103 127l484 426h-650v166h920v-136l-448 -387q35 7 75 7q112 0 208.5 -52t158 -155t61.5 -236q0 -220 -144 -357.5t-364 -137.5
q-208 0 -348.5 113t-179.5 300z" />
    <glyph glyph-name="four" unicode="4" horiz-adv-x="1177" 
d="M719 0v367h-645v186q97 95 155.5 176t92.5 175.5t45.5 192t13.5 244.5v93h178v-93q0 -259 -65 -454q-64 -193 -232 -361h457v465h178v-465h244v-159h-244v-367h-178z" />
    <glyph glyph-name="five" unicode="5" horiz-adv-x="1220" 
d="M1071 1434v-166h-733q0 -207 -51 -461q65 75 163.5 119.5t213.5 44.5q204 0 338.5 -127t134.5 -342q0 -232 -143.5 -377t-383.5 -145q-202 0 -346 108q-143 110 -170 313l172 50q24 -148 111 -227t233 -79q162 0 255 93t93 243t-87 240t-248 90q-104 0 -195.5 -54.5
t-128.5 -135.5l-188 43q61 399 61 770h899z" />
    <glyph glyph-name="six" unicode="6" horiz-adv-x="1210" 
d="M84 707q0 158 36 292.5t104 236.5t175.5 160t243.5 58q200 0 322 -102t147 -279l-168 -51q-40 272 -311 272q-77 0 -143.5 -35.5t-118 -104t-81.5 -180.5t-30 -255v-29q51 103 160.5 167.5t232.5 64.5q134 0 240.5 -62t163.5 -165.5t57 -227.5q0 -215 -135.5 -351
t-343.5 -136q-134 0 -239.5 54t-173.5 151t-103 229.5t-35 292.5zM938 451q0 140 -89.5 225.5t-230.5 85.5q-127 0 -217 -87t-90 -218q0 -139 90 -225.5t230 -86.5q135 0 221 85.5t86 220.5z" />
    <glyph glyph-name="seven" unicode="7" horiz-adv-x="1073" 
d="M70 1434h934v-146q-472 -324 -472 -954q0 -148 25 -334h-195q-18 141 -18 291q0 612 414 977h-688v166z" />
    <glyph glyph-name="eight" unicode="8" horiz-adv-x="1191" 
d="M86 410q0 135 74.5 240t206.5 147q-201 92 -201 293q0 154 119.5 259t310.5 105q190 0 310 -105t120 -259q0 -201 -201 -293q132 -42 206.5 -147t74.5 -240q0 -87 -34 -164.5t-97.5 -137t-161 -94t-217.5 -34.5t-218 34.5t-161 94t-97 137t-34 164.5zM854 1081
q0 94 -71.5 153.5t-186.5 59.5t-186.5 -59.5t-71.5 -153.5q0 -100 70.5 -159.5t187.5 -59.5t187.5 59.5t70.5 159.5zM930 430q0 125 -92.5 204t-241.5 79t-241.5 -79t-92.5 -204q0 -129 90 -207t244 -78t244 78t90 207z" />
    <glyph glyph-name="nine" unicode="9" horiz-adv-x="1220" 
d="M86 403l174 52q13 -151 100 -230.5t236 -79.5q173 0 274.5 147.5t102.5 418.5l-2 73q-48 -125 -151 -198.5t-238 -73.5q-212 0 -342.5 132t-130.5 327q0 106 37 196.5t101 153t151.5 98t187.5 35.5q286 0 418 -205q133 -204 133 -528q0 -121 -19 -229t-62 -202.5
t-106 -162.5t-156 -107.5t-208 -39.5q-208 0 -342.5 120.5t-157.5 302.5zM907 983q0 135 -88 223q-85 88 -223 88q-136 0 -223 -90q-86 -89 -86 -227q0 -139 86 -222t223 -83q136 0 223.5 86.5t87.5 224.5z" />
    <glyph glyph-name="colon" unicode=":" horiz-adv-x="483" 
d="M135 698v215h213v-215h-213zM135 0v215h213v-215h-213z" />
    <glyph glyph-name="semicolon" unicode=";" horiz-adv-x="483" 
d="M135 698v215h213v-215h-213zM68 -211l18 98q38 -18 80 -18q80 0 80 68q0 63 -74 63h-37v215h213v-268q0 -176 -180 -176q-54 0 -100 18z" />
    <glyph glyph-name="less" unicode="&#x3c;" horiz-adv-x="1146" 
d="M1016 152l-883 383v159l883 385v-184l-674 -281l674 -280v-182z" />
    <glyph glyph-name="equal" unicode="=" horiz-adv-x="1165" 
d="M131 856h905v-156h-905v156zM131 528h905v-155h-905v155z" />
    <glyph glyph-name="greater" unicode="&#x3e;" horiz-adv-x="1146" 
d="M133 152v182l674 280l-674 281v184l883 -385v-159z" />
    <glyph glyph-name="question" unicode="?" horiz-adv-x="970" 
d="M160 657q0 261 344 320q115 20 168 62.5t53 111.5q0 68 -60.5 111t-162.5 43q-109 0 -185.5 -63t-105.5 -179l-145 78q42 148 159.5 230.5t278.5 82.5q177 0 285 -81.5t108 -207.5q0 -129 -83.5 -207.5t-272.5 -119.5q-209 -44 -209 -179q0 -65 44.5 -104t117.5 -39
q80 0 132 44.5t85 137.5l141 -80q-96 -249 -356 -249q-150 0 -243 79.5t-93 208.5zM391 0v215h215v-215h-215z" />
    <glyph glyph-name="at" unicode="@" horiz-adv-x="1732" 
d="M1346 188q72 0 110.5 83t38.5 237q0 291 -161.5 449.5t-461.5 158.5q-120 1 -235 -47t-202.5 -130.5t-139.5 -202t-49 -251.5q0 -148 48.5 -269t131.5 -199t192.5 -120t233.5 -42q107 0 188 25.5t170 84.5l66 -125q-95 -63 -195 -93t-233 -30q-150 -2 -286 48.5
t-242 145.5t-168 243.5t-60 330.5q-2 157 59 300t166.5 246.5t251 163.5t305.5 58q229 0 402.5 -87t268.5 -247.5t95 -373.5q0 -239 -80 -366.5t-212 -127.5q-84 0 -137.5 44.5t-71.5 123.5q-101 -168 -310 -168q-172 0 -281.5 122t-109.5 308q0 187 116 313t282 126
q87 0 159.5 -39t108.5 -101v115h147v-596q0 -54 25.5 -82.5t69.5 -28.5zM852 782q-114 0 -188 -83t-74 -218q0 -134 72 -213.5t186 -79.5q113 0 187.5 80t74.5 213q0 134 -77.5 217.5t-180.5 83.5z" />
    <glyph glyph-name="A" unicode="A" horiz-adv-x="1513" 
d="M27 0l600 1434h262l600 -1434h-209l-147 365h-750l-150 -365h-206zM451 537h612l-305 747z" />
    <glyph glyph-name="B" unicode="B" horiz-adv-x="1409" 
d="M156 0v1434h649q201 0 328 -107t127 -266q0 -105 -58.5 -191t-157.5 -131q128 -42 197.5 -131t69.5 -221q0 -165 -133 -276t-330 -111h-692zM344 821h469q122 0 191 58.5t69 162.5q0 97 -74 155t-186 58h-469v-434zM344 178h498q120 0 196 64.5t76 169.5t-75.5 173
t-196.5 68h-498v-475z" />
    <glyph glyph-name="C" unicode="C" horiz-adv-x="1591" 
d="M289 717q0 -262 144 -413.5t376 -151.5q239 0 369 124q131 125 178 334l166 -67q-57 -253 -244 -408t-469 -155q-211 -2 -376.5 95t-254.5 265.5t-86 376.5q-2 152 53.5 289.5t151 236.5t230 156.5t282.5 54.5q264 0 420 -135q159 -135 215 -342l-172 -78
q-38 176 -158 279.5t-305 103.5q-109 0 -204.5 -40.5t-165.5 -112.5t-110 -179t-40 -233z" />
    <glyph glyph-name="D" unicode="D" horiz-adv-x="1486" 
d="M156 0v1434h532q223 0 384.5 -92.5t243 -255t81.5 -375.5q0 -154 -48 -284t-137.5 -225t-224 -148.5t-299.5 -53.5h-532zM344 1262v-1090h344q163 0 282 70.5t178.5 191t59.5 277.5q0 255 -136.5 403t-383.5 148h-344z" />
    <glyph glyph-name="E" unicode="E" horiz-adv-x="1296" 
d="M156 1434h1009v-179h-821v-424h760v-178h-760v-475h842v-178h-1030v1434z" />
    <glyph glyph-name="F" unicode="F" horiz-adv-x="1261" 
d="M156 1434h1001v-179h-813v-467h752v-178h-752v-610h-188v1434z" />
    <glyph glyph-name="G" unicode="G" horiz-adv-x="1613" 
d="M795 -20q-147 -2 -278.5 53.5t-225.5 153t-147.5 236t-51.5 294.5q-2 152 53.5 289.5t151 236.5t228.5 156.5t280 54.5q273 0 448 -130.5t232 -362.5l-185 -62q-91 377 -493 377q-106 0 -201 -41t-165 -113t-111 -177.5t-41 -227.5q0 -249 145.5 -404t382.5 -155
q97 0 180.5 38t138.5 98.5t88.5 130.5t43.5 140h-650v176h879v-741h-162v322q-87 -171 -218 -256.5t-322 -85.5z" />
    <glyph glyph-name="H" unicode="H" horiz-adv-x="1509" 
d="M1165 621h-821v-621h-188v1434h188v-641h821v641h189v-1434h-189v621z" />
    <glyph glyph-name="I" unicode="I" horiz-adv-x="497" 
d="M156 0v1434h188v-1434h-188z" />
    <glyph glyph-name="J" unicode="J" horiz-adv-x="1224" 
d="M895 1434h188v-955q0 -102 -28 -190t-84.5 -158t-151.5 -110.5t-219 -40.5q-228 0 -363 132.5t-135 342.5q0 140 58 247l178 -67q-47 -83 -47 -191q0 -128 85 -207t224 -79q147 0 221 90.5t74 265.5v920z" />
    <glyph glyph-name="K" unicode="K" horiz-adv-x="1376" 
d="M774 872l553 -872h-225l-457 733l-301 -319v-414h-188v1434h188v-766l713 766h243z" />
    <glyph glyph-name="L" unicode="L" horiz-adv-x="1306" 
d="M156 1434h188v-1256h877v-178h-1065v1434z" />
    <glyph glyph-name="M" unicode="M" horiz-adv-x="1929" 
d="M1776 0h-189v1333l-479 -1333h-287l-477 1333v-1333h-188v1434h348l461 -1293l460 1293h351v-1434z" />
    <glyph glyph-name="N" unicode="N" horiz-adv-x="1568" 
d="M344 1303v-1303h-188v1434h323l746 -1303v1303h188v-1434h-326z" />
    <glyph glyph-name="O" unicode="O" horiz-adv-x="1662" 
d="M831 1454q152 3 291 -56t238 -159t157 -237t56 -285q2 -149 -56 -286t-157 -237t-238 -158.5t-291 -55.5q-153 -3 -291.5 55.5t-237 158.5t-155.5 237t-55 286q-2 148 55 285t155.5 237t237 159t291.5 56zM831 158q152 0 275.5 69.5t195.5 197.5t72 292q0 123 -41.5 228
t-114 177t-172.5 113t-215 41q-235 0 -388.5 -156t-153.5 -405q0 -164 72 -292t195 -196.5t275 -68.5z" />
    <glyph glyph-name="P" unicode="P" horiz-adv-x="1347" 
d="M344 590v-590h-188v1434h632q216 0 340.5 -120.5t124.5 -301.5q0 -85 -32.5 -161.5t-91 -134.5t-147 -92t-194.5 -34h-444zM344 768h428q130 0 206.5 64.5t76.5 179.5t-76.5 179t-206.5 64h-428v-487z" />
    <glyph glyph-name="Q" unicode="Q" horiz-adv-x="1662" 
d="M1077 18q-115 -38 -246 -38q-153 -3 -291.5 55.5t-237 158.5t-155.5 237t-55 286q-2 148 55 285t155.5 237t237 159t291.5 56q152 3 291 -56t238 -159t157 -237t56 -285q0 -195 -89.5 -359t-248.5 -264q29 -74 81.5 -109.5t133.5 -35.5q88 0 152 49l59 -158
q-100 -65 -229 -65q-127 0 -221 62t-134 181zM526 365q0 134 93 218.5t235 84.5q158 0 247.5 -90t102.5 -263v-16q81 75 125.5 182.5t44.5 235.5q0 123 -41.5 228t-114 177t-172.5 113t-215 41q-235 0 -388.5 -156t-153.5 -405q0 -166 72 -295t200 -197q-35 62 -35 142z
M1049 197q-2 6 -2 30q-4 147 -55.5 217t-151.5 70q-75 0 -123.5 -47.5t-48.5 -120.5q0 -86 48 -137t132 -51q110 0 201 39z" />
    <glyph glyph-name="R" unicode="R" horiz-adv-x="1376" 
d="M1280 0h-231q-25 51 -37 123.5t-13 204.5q-1 150 -70 214t-210 64h-375v-606h-188v1434h655q208 0 332.5 -112t124.5 -278q0 -133 -73.5 -227t-213.5 -141q111 -42 167 -126t60 -224q5 -132 18 -192t54 -105v-29zM344 784h451q129 0 201.5 63t72.5 173q0 112 -72 173.5
t-202 61.5h-451v-471z" />
    <glyph glyph-name="S" unicode="S" horiz-adv-x="1288" 
d="M631 1276q-123 0 -201 -55t-78 -146q0 -102 94 -163.5t281 -98.5q255 -50 372.5 -147t117.5 -263q0 -185 -152.5 -304t-388.5 -119q-204 0 -373 102q-171 103 -244 336l174 108q43 -178 157.5 -273t287.5 -95q156 0 250 65t94 174q0 99 -81.5 156.5t-278.5 89.5
q-498 86 -498 428q0 161 135 272t348 111q180 0 316.5 -90t193.5 -250l-176 -100q-35 129 -124 195.5t-226 66.5z" />
    <glyph glyph-name="T" unicode="T" horiz-adv-x="1376" 
d="M1313 1434v-179h-531v-1255h-188v1255h-531v179h1250z" />
    <glyph glyph-name="U" unicode="U" horiz-adv-x="1464" 
d="M141 1434h189v-842q0 -206 107 -320t294 -114q190 0 297 114t107 320v842h188v-861q0 -263 -161 -428t-431 -165t-430 165t-160 428v861z" />
    <glyph glyph-name="V" unicode="V" horiz-adv-x="1490" 
d="M745 145l519 1289h204l-591 -1434h-263l-591 1434h206z" />
    <glyph glyph-name="W" unicode="W" horiz-adv-x="2023" 
d="M373 0l-346 1434h198l305 -1309l318 1309h328l317 -1309l305 1309h199l-346 -1434h-316l-323 1313l-326 -1313h-313z" />
    <glyph glyph-name="X" unicode="X" horiz-adv-x="1380" 
d="M37 0l543 778l-461 656h229l342 -516l350 516h222l-461 -656l542 -778h-223l-430 631l-430 -631h-223z" />
    <glyph glyph-name="Y" unicode="Y" horiz-adv-x="1376" 
d="M254 1434l434 -678l447 678h215l-568 -844v-590h-188v590l-565 844h225z" />
    <glyph glyph-name="Z" unicode="Z" horiz-adv-x="1437" 
d="M106 178l967 1077h-956v179h1200v-179l-969 -1077h979v-178h-1221v178z" />
    <glyph glyph-name="bracketleft" unicode="[" horiz-adv-x="626" 
d="M156 1675h379v-143h-220v-1704h220v-143h-379v1990z" />
    <glyph glyph-name="backslash" unicode="\" horiz-adv-x="1044" 
d="M944 -209l-149 -55l-695 1906l150 56z" />
    <glyph glyph-name="bracketright" unicode="]" horiz-adv-x="626" 
d="M92 -315v143h219v1704h-219v143h379v-1990h-379z" />
    <glyph glyph-name="asciicircum" unicode="^" horiz-adv-x="1130" 
d="M635 1454l387 -434v-29h-203l-239 312h-29l-238 -312h-202v29l387 434h137z" />
    <glyph glyph-name="underscore" unicode="_" horiz-adv-x="1175" 
d="M84 -51h1010v-160h-1010v160z" />
    <glyph glyph-name="grave" unicode="`" horiz-adv-x="663" 
d="M371 1137l-248 243v29h239l179 -272h-170z" />
    <glyph glyph-name="a" unicode="a" horiz-adv-x="1054" 
d="M92 276q0 145 99 223.5t262 78.5q104 0 206 -31l89 -25v101q0 104 -66.5 161.5t-177.5 57.5q-104 0 -171.5 -53.5t-86.5 -147.5l-160 45q30 141 140 223t278 82q197 0 305.5 -101t108.5 -282v-608h-170v154q-37 -79 -127.5 -126.5t-206.5 -47.5q-136 0 -230 79
q-92 83 -92 217zM748 362v21l-91 27q-102 30 -180 30q-95 0 -149 -39.5t-54 -113.5q0 -69 52 -110.5t147 -41.5q123 0 199 61.5t76 165.5z" />
    <glyph glyph-name="b" unicode="b" horiz-adv-x="1173" 
d="M137 1434h176v-646q50 92 143 147.5t201 55.5q194 0 316.5 -143t122.5 -369q0 -224 -128 -361.5t-331 -137.5q-105 0 -193 47.5t-139 132.5v-160h-168v1434zM612 137q130 0 219 92.5t89 251.5q0 158 -89.5 254t-218.5 96q-123 0 -215 -97.5t-92 -252.5t91 -249.5
t216 -94.5z" />
    <glyph glyph-name="c" unicode="c" horiz-adv-x="1126" 
d="M584 135q136 0 213.5 74.5t107.5 216.5l158 -59q-41 -184 -166 -285.5t-309 -101.5q-229 0 -369.5 141t-140.5 371q0 107 39 200.5t105 158.5t155.5 102.5t187.5 37.5q177 0 296.5 -92.5t154.5 -257.5l-162 -49q-23 116 -98 180t-193 64q-57 0 -112 -23t-100.5 -65
t-73 -109t-27.5 -147q0 -157 99.5 -257t234.5 -100z" />
    <glyph glyph-name="d" unicode="d" horiz-adv-x="1173" 
d="M78 479q0 226 126 369t324 143q111 0 197.5 -52t134.5 -144v639h178v-1434h-170v174q-50 -89 -139 -141.5t-197 -52.5q-201 0 -327.5 138.5t-126.5 360.5zM868 481q0 154 -93 252t-214 98q-124 0 -215.5 -96.5t-91.5 -253.5q0 -158 90.5 -251t216.5 -93q58 0 112.5 23.5
t98 66.5t70 109t26.5 145z" />
    <glyph glyph-name="e" unicode="e" horiz-adv-x="1069" 
d="M848 352l153 -59q-50 -151 -160 -232t-274 -81q-216 0 -352.5 140t-136.5 372q0 139 57.5 252.5t164 180t241.5 66.5q195 0 313 -112q119 -110 119 -301q0 -64 -12 -119h-703q1 -153 88 -238.5t221 -85.5q220 0 281 217zM258 586h539l2 28q0 102 -73.5 162t-186.5 60
t-190.5 -67.5t-90.5 -182.5z" />
    <glyph glyph-name="f" unicode="f" horiz-adv-x="792" 
d="M240 0v821h-217v150h217v147q0 155 86.5 245.5t242.5 90.5t239 -78t83 -209q0 -33 -2 -45h-166l2 37q0 69 -42 107.5t-114 38.5q-153 0 -153 -191v-143h274v-150h-274v-821h-176z" />
    <glyph glyph-name="g" unicode="g" horiz-adv-x="1179" 
d="M133 -127l160 68q58 -211 287 -211q140 0 212 89t72 255v108q-44 -84 -131.5 -133t-206.5 -49q-92 0 -174 34.5t-142.5 96.5t-96 152.5t-35.5 197.5q0 224 132 367t327 143q219 0 327 -166v146h178v-885q0 -230 -120 -371t-342 -141q-352 0 -447 299zM872 494
q0 148 -87.5 245t-219.5 97q-137 0 -224 -97t-87 -260q0 -147 87 -235t224 -88q133 0 220 95t87 243z" />
    <glyph glyph-name="h" unicode="h" horiz-adv-x="1136" 
d="M313 0h-176v1434h176v-668q41 105 132.5 165t209.5 60q159 0 252.5 -98t93.5 -264v-629h-178v588q0 123 -60 187.5t-171 64.5q-119 0 -199 -94.5t-80 -243.5v-502z" />
    <glyph glyph-name="i" unicode="i" horiz-adv-x="450" 
d="M137 971h176v-971h-176v971zM127 1151v207h197v-207h-197z" />
    <glyph glyph-name="j" unicode="j" horiz-adv-x="450" 
d="M137 -406v1377h176v-1377h-176zM127 1151v207h197v-207h-197z" />
    <glyph glyph-name="k" unicode="k" horiz-adv-x="1034" 
d="M586 578l399 -578h-215l-307 446l-150 -157v-289h-176v1434h176v-918l416 455h225z" />
    <glyph glyph-name="l" unicode="l" horiz-adv-x="450" 
d="M137 0v1434h176v-1434h-176z" />
    <glyph glyph-name="m" unicode="m" horiz-adv-x="1540" 
d="M137 971h176v-137q77 157 262 157q90 0 157 -50t91 -142q38 91 114.5 141.5t170.5 50.5q137 0 216 -82.5t79 -234.5v-674h-176v637q0 89 -49.5 141.5t-128.5 52.5q-83 0 -137 -59.5t-54 -167.5v-604h-178v629q0 97 -48 149.5t-130 52.5q-83 0 -136 -61.5t-53 -175.5v-594
h-176v971z" />
    <glyph glyph-name="n" unicode="n" horiz-adv-x="1112" 
d="M313 0h-176v971h176v-158q51 85 134.5 131.5t185.5 46.5q157 0 249.5 -95.5t92.5 -264.5v-631h-178v578q0 126 -58 192t-164 66q-113 0 -187.5 -83.5t-74.5 -220.5v-532z" />
    <glyph glyph-name="o" unicode="o" horiz-adv-x="1138" 
d="M78 485q0 218 137 362t354 144q145 0 258 -66.5t174.5 -181.5t61.5 -258q0 -217 -139 -361t-355 -144q-217 0 -354 143.5t-137 361.5zM881 485q0 154 -88 248q-85 98 -224 98q-135 0 -223 -97t-88 -249t88 -249t223 -97q137 0 224.5 96.5t87.5 249.5z" />
    <glyph glyph-name="p" unicode="p" horiz-adv-x="1173" 
d="M137 971h168v-183q48 89 144.5 146t203.5 57q197 0 320 -140.5t123 -365.5q0 -224 -128 -364.5t-327 -140.5q-105 0 -192 45.5t-136 126.5v-558h-176v1377zM612 137q127 0 217.5 92.5t90.5 253.5q0 160 -90.5 254t-217.5 94q-121 0 -214 -97t-93 -251t93 -250t214 -96z
" />
    <glyph glyph-name="q" unicode="q" horiz-adv-x="1173" 
d="M860 -406v580q-111 -194 -336 -194q-196 0 -321 141.5t-125 363.5q0 225 128 365.5t329 140.5q115 0 203 -54t130 -146v180h170v-1377h-178zM868 483q0 158 -90.5 253t-216.5 95q-127 0 -217 -94t-90 -254q0 -162 89.5 -254t217.5 -92q122 0 214.5 94.5t92.5 251.5z" />
    <glyph glyph-name="r" unicode="r" horiz-adv-x="901" 
d="M137 971h176v-142q32 78 96 120t152 42q117 0 191.5 -76t74.5 -188q0 -59 -12 -109h-172q6 44 6 72q0 68 -41.5 107t-113.5 39q-82 0 -131.5 -60t-49.5 -158v-618h-176v971z" />
    <glyph glyph-name="s" unicode="s" horiz-adv-x="966" 
d="M68 254l145 76q41 -103 110 -149t179 -46q96 0 152.5 38.5t56.5 102.5q0 71 -56.5 110.5t-199.5 59.5q-334 49 -334 279q0 117 98 190q101 76 252 76q257 0 350 -215l-137 -76q-50 148 -213 148q-81 0 -134.5 -34.5t-53.5 -90.5q0 -62 58 -95t202 -53q340 -46 340 -288
q0 -134 -111.5 -220.5t-277.5 -86.5q-161 0 -271.5 73.5t-154.5 200.5z" />
    <glyph glyph-name="t" unicode="t" horiz-adv-x="917" 
d="M240 289v532h-193v150h193v301h178v-301h348v-150h-348v-540q0 -67 37.5 -106.5t95.5 -39.5q62 0 97.5 36.5t47.5 115.5l164 -37q-20 -130 -99 -200t-204 -70q-153 0 -235 81t-82 228z" />
    <glyph glyph-name="u" unicode="u" horiz-adv-x="1116" 
d="M803 971h178v-971h-178v164q-51 -87 -132.5 -135.5t-185.5 -48.5q-162 0 -255 95.5t-93 272.5v623h176v-582q0 -126 56 -190t163 -64q118 0 194.5 88t76.5 232v516z" />
    <glyph glyph-name="v" unicode="v" horiz-adv-x="1067" 
d="M225 971l310 -799l307 799h188l-389 -971h-215l-387 971h186z" />
    <glyph glyph-name="w" unicode="w" horiz-adv-x="1517" 
d="M209 971l227 -799l219 799h207l219 -799l228 799h174l-289 -971h-219l-215 745l-215 -745h-221l-289 971h174z" />
    <glyph glyph-name="x" unicode="x" horiz-adv-x="958" 
d="M889 971l-311 -457l354 -514h-203l-250 375l-250 -375h-202l356 512l-315 459h206l205 -316l203 316h207z" />
    <glyph glyph-name="y" unicode="y" horiz-adv-x="985" 
d="M770 971h188l-622 -1377h-189l240 531l-371 846h193l272 -639z" />
    <glyph glyph-name="z" unicode="z" horiz-adv-x="1013" 
d="M918 0h-832v150l600 661h-590v160h811v-150l-600 -661h611v-160z" />
    <glyph glyph-name="braceleft" unicode="{" horiz-adv-x="651" 
d="M182 -47v557q0 96 -92 96h-20v148h20q92 0 92 96v557q0 140 64.5 204t202.5 64h110v-145h-110q-107 0 -107 -113v-549q0 -83 -33 -126t-108 -62q75 -19 108 -61t33 -125v-551q0 -113 107 -113h110v-145h-110q-138 0 -202.5 64t-64.5 204z" />
    <glyph glyph-name="bar" unicode="|" horiz-adv-x="471" 
d="M156 1700h161v-2007h-161v2007z" />
    <glyph glyph-name="braceright" unicode="}" horiz-adv-x="651" 
d="M92 -315v145h111q106 0 106 113v551q0 83 33.5 125t108.5 61q-75 19 -108.5 62t-33.5 126v549q0 113 -106 113h-111v145h113q137 0 201.5 -64t64.5 -204v-557q0 -96 90 -96h23v-148h-23q-90 0 -90 -96v-557q0 -140 -64.5 -204t-201.5 -64h-113z" />
    <glyph glyph-name="asciitilde" unicode="~" horiz-adv-x="1089" 
d="M156 469l-2 35q0 106 69 170.5t172 64.5q63 0 104.5 -20.5t84.5 -63.5q38 -34 57.5 -44.5t48.5 -10.5q39 0 66.5 26.5t27.5 67.5q0 20 -8 41l158 -20q4 -24 4 -35q0 -104 -69.5 -171t-174.5 -67q-64 0 -101 18.5t-87 65.5q-33 33 -54.5 45.5t-52.5 12.5
q-39 0 -66.5 -27.5t-27.5 -69.5q0 -23 6 -41z" />
    <glyph glyph-name="uni00A0" unicode="&#xa0;" horiz-adv-x="501" 
 />
    <glyph glyph-name="exclamdown" unicode="&#xa1;" horiz-adv-x="483" 
d="M135 1028h213v-215h-213v215zM154 670h176v-1076h-176v1076z" />
    <glyph glyph-name="cent" unicode="&#xa2;" horiz-adv-x="1126" 
d="M645 -18v-183h-166v189q-185 32 -293 167t-108 337q0 191 114 325t287 166v188h166v-186q147 -19 243.5 -108t127.5 -236l-162 -49q-19 94 -72 154.5t-137 80.5v-688q207 27 260 287l158 -59q-38 -169 -147.5 -268.5t-270.5 -116.5zM479 152v671q-102 -31 -165.5 -117
t-63.5 -214q0 -124 63 -214t166 -126z" />
    <glyph glyph-name="sterling" unicode="&#xa3;" horiz-adv-x="1290" 
d="M1073 289l158 -84q-95 -225 -336 -225q-95 0 -165 34t-134 101q-82 -135 -248 -135q-122 0 -190 65t-68 172q0 103 71 169.5t181 66.5q96 0 170 -47q-9 89 -74 184h-270v160h154q-99 145 -99 292q0 185 132 298.5t327 113.5q189 0 308.5 -102t144.5 -275l-183 -55
q-17 124 -86.5 192t-183.5 68q-121 0 -195.5 -68t-74.5 -192q0 -69 24.5 -127t83.5 -145h350v-160h-254q48 -111 48 -215q0 -53 -9 -96q69 -69 118 -98t112 -29q70 0 114.5 31.5t73.5 105.5zM494 225q-68 68 -140 68q-50 0 -79 -25.5t-29 -64.5t28.5 -63.5t77.5 -24.5
q50 0 86.5 29t55.5 81z" />
    <glyph glyph-name="currency" unicode="&#xa4;" horiz-adv-x="1224" 
d="M989 453l146 -146l-113 -112l-145 145q-119 -82 -265 -82q-145 0 -264 82l-145 -145l-113 112l146 146q-82 119 -82 264q0 143 82 262l-146 147l113 113l145 -145q119 82 264 82q146 0 265 -82l145 145l113 -113l-146 -145q82 -119 82 -264t-82 -264zM612 420
q124 0 210.5 86t86.5 211t-86.5 211t-210.5 86t-210.5 -86t-86.5 -211t86.5 -211t210.5 -86z" />
    <glyph glyph-name="yen" unicode="&#xa5;" horiz-adv-x="1376" 
d="M1350 1434l-465 -689h248v-161h-353v-109h353v-160h-353v-315h-182v315h-352v160h352v109h-352v161h248l-465 689h213l446 -680l447 680h215z" />
    <glyph glyph-name="brokenbar" unicode="&#xa6;" horiz-adv-x="471" 
d="M156 819v881h161v-881h-161zM317 614v-921h-161v921h161z" />
    <glyph glyph-name="section" unicode="&#xa7;" horiz-adv-x="1087" 
d="M973 129q0 -152 -120 -247t-310 -95q-176 0 -286.5 71.5t-145.5 207.5l153 75q57 -194 279 -194q113 0 185.5 47t72.5 127q0 90 -88 142t-262 73q-392 50 -392 309q0 145 152 238q-107 82 -107 229q0 152 119.5 247t308.5 95q178 0 289 -71.5t146 -206.5l-156 -76
q-57 194 -279 194q-112 0 -185 -47t-73 -127q0 -90 89 -142t264 -73q389 -49 389 -309q0 -149 -152 -236q109 -86 109 -231zM545 477q107 -14 192 -47q103 59 103 152q0 78 -68.5 118.5t-239.5 65.5q-93 13 -192 45q-107 -58 -107 -152q0 -78 70 -118.5t242 -63.5z" />
    <glyph glyph-name="dieresis" unicode="&#xa8;" horiz-adv-x="704" 
d="M82 1161v203h199v-203h-199zM424 1161v203h199v-203h-199z" />
    <glyph glyph-name="copyright" unicode="&#xa9;" horiz-adv-x="1097" 
d="M90 995q0 190 133.5 324.5t325.5 134.5t325.5 -134.5t133.5 -324.5q0 -124 -60.5 -229.5t-166 -167t-232.5 -61.5t-232.5 61.5t-166 167t-60.5 229.5zM915 995q0 155 -105 262t-261 107t-261.5 -107t-105.5 -262t105.5 -261.5t261.5 -106.5t261 106.5t105 261.5zM287 997
q0 117 75 189q76 76 185 76q95 0 157.5 -48t81.5 -139l-88 -26q-7 57 -49 92t-102 35q-69 0 -114.5 -48t-45.5 -131q0 -80 47.5 -129t118.5 -49q143 0 170 150l88 -33q-26 -99 -93.5 -153t-164.5 -54q-118 0 -192 73.5t-74 194.5z" />
    <glyph glyph-name="ordfeminine" unicode="&#xaa;" horiz-adv-x="952" 
d="M80 807q0 130 90 201t236 71q94 0 186 -28l76 -21v88q0 93 -58.5 145t-156.5 52q-90 0 -150.5 -47.5t-77.5 -130.5l-147 41q27 126 126 201t249 75q179 0 277.5 -91.5t98.5 -256.5v-551h-157v137q-37 -72 -116.5 -113.5t-184.5 -41.5q-125 0 -208 74.5t-83 195.5z
M668 883v18l-76 25q-82 26 -162 26q-86 0 -132 -35.5t-46 -103.5q0 -61 46.5 -97t129.5 -36q107 0 173.5 55t66.5 148z" />
    <glyph glyph-name="guillemotleft" unicode="&#xab;" horiz-adv-x="1024" 
d="M518 184l-414 406v49l414 405h29v-196l-254 -219v-29l254 -219v-197h-29zM881 184l-414 406v49l414 405h28v-196l-254 -219v-29l254 -219v-197h-28z" />
    <glyph glyph-name="logicalnot" unicode="&#xac;" horiz-adv-x="1157" 
d="M877 451v256h-746v151h895v-407h-149z" />
    <glyph glyph-name="uni00AD" unicode="&#xad;" horiz-adv-x="739" 
d="M100 598h539v-160h-539v160z" />
    <glyph glyph-name="registered" unicode="&#xae;" horiz-adv-x="1097" 
d="M90 995q0 190 133.5 324.5t325.5 134.5t325.5 -134.5t133.5 -324.5q0 -124 -60.5 -229.5t-166 -167t-232.5 -61.5t-232.5 61.5t-166 167t-60.5 229.5zM915 995q0 155 -105 262t-261 107t-261.5 -107t-105.5 -262t105.5 -261.5t261.5 -106.5t261 106.5t105 261.5zM362 739
v514h232q73 0 118.5 -38t45.5 -95q0 -102 -101 -139q86 -27 86 -125q0 -45 5 -66t22 -38v-13h-106q-21 41 -21 117q0 54 -22.5 76t-73.5 22h-92v-215h-93zM455 1036h127q80 0 80 68q0 70 -80 70h-127v-138z" />
    <glyph glyph-name="overscore" unicode="&#xaf;" horiz-adv-x="782" 
d="M131 1331h520v-141h-520v141z" />
    <glyph glyph-name="degree" unicode="&#xb0;" horiz-adv-x="841" 
d="M86 1120q0 136 99 235t235 99t235 -99t99 -235t-99 -235t-235 -99t-235 99t-99 235zM612 1120q0 83 -54 139t-138 56t-138.5 -56t-54.5 -139t54.5 -138.5t138.5 -55.5t138 55.5t54 138.5z" />
    <glyph glyph-name="plusminus" unicode="&#xb1;" horiz-adv-x="1173" 
d="M514 260v328h-375v155h375v328h154v-328h374v-155h-374v-328h-154zM131 0v156h905v-156h-905z" />
    <glyph glyph-name="uni00B2" unicode="&#xb2;" horiz-adv-x="604" 
d="M53 1225q0 96 69 156.5t175 60.5q117 0 181.5 -57.5t64.5 -157.5q-1 -35 -6.5 -62.5t-20 -51.5t-25 -39t-38 -36t-42 -30.5t-53.5 -34.5q-63 -40 -90.5 -64t-38.5 -57h316v-115h-484q0 109 47.5 177t147.5 126q92 50 126 88t34 93q0 50 -32 78t-91 28q-51 0 -84 -28.5
t-33 -71.5q0 -47 29 -76l-99 -66q-53 59 -53 140z" />
    <glyph glyph-name="uni00B3" unicode="&#xb3;" horiz-adv-x="632" 
d="M55 932l117 55q8 -64 46 -100.5t99 -36.5q54 0 89.5 33.5t35.5 87.5q0 56 -32 89.5t-86 33.5q-48 0 -82 -27l-72 88l195 162h-273v117h443v-101l-170 -145h14q73 0 131.5 -59t58.5 -156q0 -108 -71 -176t-181 -68q-107 0 -175 55t-87 148z" />
    <glyph glyph-name="acute" unicode="&#xb4;" horiz-adv-x="663" 
d="M123 1137l178 272h240v-29l-248 -243h-170z" />
    <glyph glyph-name="uni00B5" unicode="&#xb5;" horiz-adv-x="1116" 
d="M137 -406v1377h176v-582q0 -254 232 -254q111 0 184.5 87.5t73.5 232.5v516h178v-971h-178v164q-43 -87 -118.5 -135.5t-172.5 -48.5q-134 0 -199 83v-469h-176z" />
    <glyph glyph-name="paragraph" unicode="&#xb6;" horiz-adv-x="1095" 
d="M471 0v725h-41q-163 0 -264 98q-100 100 -100 256q0 157 100 254q101 101 264 101h594v-121h-90v-1313h-137v1313h-187v-1313h-139zM430 846h41v467h-41q-96 0 -160.5 -62.5t-64.5 -171.5t64.5 -171t160.5 -62z" />
    <glyph glyph-name="middot" unicode="&#xb7;" horiz-adv-x="483" 
d="M135 825h213v-215h-213v215z" />
    <glyph glyph-name="cedilla" unicode="&#xb8;" horiz-adv-x="581" 
d="M209 -109q19 21 47.5 34.5t54.5 13.5q70 0 114 -43t44 -115q0 -77 -48 -121.5t-124 -44.5q-71 0 -120.5 35.5t-61.5 101.5l96 25q5 -31 27.5 -50.5t54.5 -19.5q38 0 60 20.5t22 53.5t-22.5 54.5t-59.5 21.5q-24 0 -45.5 -12t-32.5 -31l-96 18q23 80 43 201h104
q-31 -97 -57 -142z" />
    <glyph glyph-name="uni00B9" unicode="&#xb9;" horiz-adv-x="432" 
d="M221 737v520q-48 -98 -170 -108l-18 133q168 12 198 152h115v-697h-125z" />
    <glyph glyph-name="ordmasculine" unicode="&#xba;" horiz-adv-x="1024" 
d="M512 1454q199 0 320.5 -128t121.5 -331t-121.5 -330.5t-320.5 -127.5t-320.5 127.5t-121.5 330.5t121.5 331t320.5 128zM512 684q124 0 201.5 86t77.5 225t-78 225.5t-201 86.5t-199.5 -86.5t-76.5 -225.5t76.5 -225t199.5 -86z" />
    <glyph glyph-name="guillemotright" unicode="&#xbb;" horiz-adv-x="1024" 
d="M115 184v197l254 219v29l-254 219v196h28l414 -405v-49l-414 -406h-28zM477 184v197l254 219v29l-254 219v196h29l414 -405v-49l-414 -406h-29z" />
    <glyph glyph-name="onequarter" unicode="&#xbc;" horiz-adv-x="1337" 
d="M221 737v520q-48 -98 -170 -108l-18 133q168 12 198 152h115v-697h-125zM1030 1212l90 -88l-995 -950l-92 88zM1102 0v154h-328v131q79 76 111.5 158t32.5 208v45h124v-45q0 -242 -133 -381h193v211h125v-211h86v-116h-86v-154h-125z" />
    <glyph glyph-name="onehalf" unicode="&#xbd;" horiz-adv-x="1327" 
d="M221 737v520q-48 -98 -170 -108l-18 133q168 12 198 152h115v-697h-125zM1030 1212l90 -88l-995 -950l-92 88zM776 487q0 96 69 157t175 61q117 0 181.5 -58t64.5 -158q-1 -27 -4 -48.5t-12 -41.5t-14.5 -33.5t-23 -30.5t-24.5 -24.5t-32.5 -25t-34 -23t-40.5 -26.5
q-63 -40 -90.5 -64t-38.5 -57h316v-115h-484q0 109 47.5 177t147.5 126q92 50 126 87.5t34 92.5q0 50 -32 78.5t-91 28.5q-51 0 -84 -29t-33 -72q0 -46 29 -75l-99 -66q-53 59 -53 139z" />
    <glyph glyph-name="threequarters" unicode="&#xbe;" horiz-adv-x="1538" 
d="M55 932l117 55q8 -64 46 -100.5t99 -36.5q54 0 89.5 33.5t35.5 87.5q0 56 -32 89.5t-86 33.5q-48 0 -82 -27l-72 88l195 162h-273v117h443v-101l-170 -145h14q73 0 131.5 -59t58.5 -156q0 -108 -71 -176t-181 -68q-107 0 -175 55t-87 148zM1231 1212l90 -88l-995 -950
l-93 88zM1303 0v154h-328v131q78 75 110.5 157t32.5 209v45h125v-45q0 -242 -133 -381h193v211h124v-211h86v-116h-86v-154h-124z" />
    <glyph glyph-name="questiondown" unicode="&#xbf;" horiz-adv-x="970" 
d="M580 1028v-215h-215v215h215zM811 371q0 -261 -344 -320q-115 -20 -168 -62.5t-53 -111.5q0 -68 60.5 -110.5t162.5 -42.5q110 0 186 62.5t105 178.5l145 -78q-42 -148 -159.5 -230.5t-278.5 -82.5q-177 0 -285 81.5t-108 207.5q0 129 83.5 207.5t272.5 119.5
q209 44 209 179q0 65 -44.5 104t-117.5 39q-80 0 -132 -44.5t-85 -137.5l-141 80q96 249 356 249q150 0 243 -79.5t93 -208.5z" />
    <glyph glyph-name="Agrave" unicode="&#xc0;" horiz-adv-x="1513" 
d="M27 0l600 1434h262l600 -1434h-209l-147 365h-750l-150 -365h-206zM451 537h612l-305 747zM674 1599l-248 244v29h240l178 -273h-170z" />
    <glyph glyph-name="Aacute" unicode="&#xc1;" horiz-adv-x="1513" 
d="M27 0l600 1434h262l600 -1434h-209l-147 365h-750l-150 -365h-206zM451 537h612l-305 747zM674 1599l178 273h240v-29l-248 -244h-170z" />
    <glyph glyph-name="Acircumflex" unicode="&#xc2;" horiz-adv-x="1513" 
d="M27 0l600 1434h262l600 -1434h-209l-147 365h-750l-150 -365h-206zM451 537h612l-305 747zM446 1599v29l248 217h127l248 -217v-29h-195l-116 142l-117 -142h-195z" />
    <glyph glyph-name="Atilde" unicode="&#xc3;" horiz-adv-x="1513" 
d="M27 0l600 1434h262l600 -1434h-209l-147 365h-750l-150 -365h-206zM451 537h612l-305 747zM727 1669q-26 24 -44.5 33.5t-43.5 9.5q-30 0 -50 -19t-20 -51q0 -17 6 -32l-129 16q-4 16 -4 33q0 79 54.5 130.5t134.5 51.5q53 0 85.5 -14.5t71.5 -48.5q26 -24 45 -33.5
t44 -9.5q30 0 49.5 18.5t19.5 50.5q0 18 -6 33l131 -16q4 -16 4 -33q0 -79 -55 -130.5t-135 -51.5q-53 0 -86 14.5t-72 48.5z" />
    <glyph glyph-name="Adieresis" unicode="&#xc4;" horiz-adv-x="1513" 
d="M27 0l600 1434h262l600 -1434h-209l-147 365h-750l-150 -365h-206zM451 537h612l-305 747zM487 1624v203h199v-203h-199zM829 1624v203h199v-203h-199z" />
    <glyph glyph-name="Aring" unicode="&#xc5;" horiz-adv-x="1513" 
d="M27 0l600 1434h262l600 -1434h-209l-147 365h-750l-150 -365h-206zM451 537h612l-305 747zM578 1747q0 75 52.5 128.5t127.5 53.5t128.5 -53.5t53.5 -128.5t-53.5 -127.5t-128.5 -52.5t-127.5 52.5t-52.5 127.5zM838 1747q0 32 -24 56t-56 24t-56 -24t-24 -56t24 -56
t56 -24t56 24t24 56z" />
    <glyph glyph-name="AE" unicode="&#xc6;" horiz-adv-x="1939" 
d="M1073 178h756v-178h-944v365h-461l-188 -365h-209l743 1434h1038v-179h-735v-424h674v-178h-674v-475zM885 537v720l-373 -720h373z" />
    <glyph glyph-name="Ccedilla" unicode="&#xc7;" horiz-adv-x="1591" 
d="M289 717q0 -262 144 -413.5t376 -151.5q239 0 369 124q131 125 178 334l166 -67q-57 -253 -244 -408t-469 -155q-211 -2 -376.5 95t-254.5 265.5t-86 376.5q-2 152 53.5 289.5t151 236.5t230 156.5t282.5 54.5q264 0 420 -135q159 -135 215 -342l-172 -78
q-38 176 -158 279.5t-305 103.5q-109 0 -204.5 -40.5t-165.5 -112.5t-110 -179t-40 -233zM745 -109q19 21 48 34.5t55 13.5q70 0 114 -43t44 -115q0 -77 -48 -121.5t-124 -44.5q-71 0 -121 35.5t-62 101.5l97 25q5 -31 27 -50.5t54 -19.5q38 0 60 20.5t22 53.5t-22.5 54.5
t-59.5 21.5q-53 0 -77 -43l-97 18q23 80 43 201h105q-29 -93 -58 -142z" />
    <glyph glyph-name="Egrave" unicode="&#xc8;" horiz-adv-x="1296" 
d="M156 1434h1009v-179h-821v-424h760v-178h-760v-475h842v-178h-1030v1434zM575 1599l-247 244v29h239l178 -273h-170z" />
    <glyph glyph-name="Eacute" unicode="&#xc9;" horiz-adv-x="1296" 
d="M156 1434h1009v-179h-821v-424h760v-178h-760v-475h842v-178h-1030v1434zM575 1599l179 273h239v-29l-248 -244h-170z" />
    <glyph glyph-name="Ecircumflex" unicode="&#xca;" horiz-adv-x="1296" 
d="M156 1434h1009v-179h-821v-424h760v-178h-760v-475h842v-178h-1030v1434zM348 1599v29l248 217h127l248 -217v-29h-195l-117 142l-116 -142h-195z" />
    <glyph glyph-name="Edieresis" unicode="&#xcb;" horiz-adv-x="1296" 
d="M156 1434h1009v-179h-821v-424h760v-178h-760v-475h842v-178h-1030v1434zM387 1624v203h199v-203h-199zM729 1624v203h199v-203h-199z" />
    <glyph glyph-name="Igrave" unicode="&#xcc;" horiz-adv-x="497" 
d="M156 0v1434h188v-1434h-188zM166 1599l-248 244v29h240l178 -273h-170z" />
    <glyph glyph-name="Iacute" unicode="&#xcd;" horiz-adv-x="497" 
d="M156 0v1434h188v-1434h-188zM166 1599l178 273h240v-29l-248 -244h-170z" />
    <glyph glyph-name="Icircumflex" unicode="&#xce;" horiz-adv-x="497" 
d="M156 0v1434h188v-1434h-188zM-61 1599v29l247 217h127l248 -217v-29h-194l-117 142l-117 -142h-194z" />
    <glyph glyph-name="Idieresis" unicode="&#xcf;" horiz-adv-x="497" 
d="M156 0v1434h188v-1434h-188zM-23 1624v203h199v-203h-199zM319 1624v203h199v-203h-199z" />
    <glyph glyph-name="Eth" unicode="&#xd0;" horiz-adv-x="1486" 
d="M156 0v1434h532q223 0 384.5 -92.5t243 -255t81.5 -375.5q0 -154 -48 -284t-137.5 -225t-224 -148.5t-299.5 -53.5h-532zM344 1262v-1090h344q163 0 282 70.5t178.5 191t59.5 277.5q0 255 -136.5 403t-383.5 148h-344zM-10 793h770v-154h-770v154z" />
    <glyph glyph-name="Ntilde" unicode="&#xd1;" horiz-adv-x="1568" 
d="M344 1303v-1303h-188v1434h323l746 -1303v1303h188v-1434h-326zM754 1669q-26 24 -44.5 33.5t-43.5 9.5q-30 0 -50 -19t-20 -51q0 -17 6 -32l-129 16q-4 16 -4 33q0 79 54 130.5t134 51.5q53 0 86 -14.5t72 -48.5q26 -24 44.5 -33.5t43.5 -9.5q30 0 50 19t20 50
q0 18 -6 33l131 -16q4 -16 4 -33q0 -79 -55.5 -130.5t-135.5 -51.5q-53 0 -85.5 14.5t-71.5 48.5z" />
    <glyph glyph-name="Ograve" unicode="&#xd2;" horiz-adv-x="1662" 
d="M831 1454q152 3 291 -56t238 -159t157 -237t56 -285q2 -149 -56 -286t-157 -237t-238 -158.5t-291 -55.5q-153 -3 -291.5 55.5t-237 158.5t-155.5 237t-55 286q-2 148 55 285t155.5 237t237 159t291.5 56zM831 158q152 0 275.5 69.5t195.5 197.5t72 292q0 123 -41.5 228
t-114 177t-172.5 113t-215 41q-235 0 -388.5 -156t-153.5 -405q0 -164 72 -292t195 -196.5t275 -68.5zM748 1599l-248 244v29h239l179 -273h-170z" />
    <glyph glyph-name="Oacute" unicode="&#xd3;" horiz-adv-x="1662" 
d="M831 1454q152 3 291 -56t238 -159t157 -237t56 -285q2 -149 -56 -286t-157 -237t-238 -158.5t-291 -55.5q-153 -3 -291.5 55.5t-237 158.5t-155.5 237t-55 286q-2 148 55 285t155.5 237t237 159t291.5 56zM831 158q152 0 275.5 69.5t195.5 197.5t72 292q0 123 -41.5 228
t-114 177t-172.5 113t-215 41q-235 0 -388.5 -156t-153.5 -405q0 -164 72 -292t195 -196.5t275 -68.5zM748 1599l178 273h239v-29l-247 -244h-170z" />
    <glyph glyph-name="Ocircumflex" unicode="&#xd4;" horiz-adv-x="1662" 
d="M831 1454q152 3 291 -56t238 -159t157 -237t56 -285q2 -149 -56 -286t-157 -237t-238 -158.5t-291 -55.5q-153 -3 -291.5 55.5t-237 158.5t-155.5 237t-55 286q-2 148 55 285t155.5 237t237 159t291.5 56zM831 158q152 0 275.5 69.5t195.5 197.5t72 292q0 123 -41.5 228
t-114 177t-172.5 113t-215 41q-235 0 -388.5 -156t-153.5 -405q0 -164 72 -292t195 -196.5t275 -68.5zM520 1599v29l248 217h127l248 -217v-29h-195l-117 142l-116 -142h-195z" />
    <glyph glyph-name="Otilde" unicode="&#xd5;" horiz-adv-x="1662" 
d="M831 1454q152 3 291 -56t238 -159t157 -237t56 -285q2 -149 -56 -286t-157 -237t-238 -158.5t-291 -55.5q-153 -3 -291.5 55.5t-237 158.5t-155.5 237t-55 286q-2 148 55 285t155.5 237t237 159t291.5 56zM831 158q152 0 275.5 69.5t195.5 197.5t72 292q0 123 -41.5 228
t-114 177t-172.5 113t-215 41q-235 0 -388.5 -156t-153.5 -405q0 -164 72 -292t195 -196.5t275 -68.5zM801 1669q-26 24 -44.5 33.5t-43.5 9.5q-30 0 -50 -19t-20 -51q0 -17 6 -32l-129 16q-4 16 -4 33q0 79 54.5 130.5t134.5 51.5q53 0 85.5 -14.5t71.5 -48.5
q26 -24 44.5 -33.5t43.5 -9.5q30 0 50 19t20 50q0 18 -6 33l131 -16q4 -16 4 -33q0 -79 -55.5 -130.5t-135.5 -51.5q-53 0 -85.5 14.5t-71.5 48.5z" />
    <glyph glyph-name="Odieresis" unicode="&#xd6;" horiz-adv-x="1662" 
d="M831 1454q152 3 291 -56t238 -159t157 -237t56 -285q2 -149 -56 -286t-157 -237t-238 -158.5t-291 -55.5q-153 -3 -291.5 55.5t-237 158.5t-155.5 237t-55 286q-2 148 55 285t155.5 237t237 159t291.5 56zM831 158q152 0 275.5 69.5t195.5 197.5t72 292q0 123 -41.5 228
t-114 177t-172.5 113t-215 41q-235 0 -388.5 -156t-153.5 -405q0 -164 72 -292t195 -196.5t275 -68.5zM561 1624v203h199v-203h-199zM903 1624v203h199v-203h-199z" />
    <glyph glyph-name="multiply" unicode="&#xd7;" horiz-adv-x="1009" 
d="M240 240l-109 110l264 264l-264 265l109 110l266 -264l264 264l109 -110l-265 -265l265 -264l-109 -110l-264 264z" />
    <glyph glyph-name="Oslash" unicode="&#xd8;" horiz-adv-x="1662" 
d="M831 1454q152 3 291 -56t238 -159t157 -237t56 -285q2 -149 -56 -286t-157 -237t-238 -158.5t-291 -55.5q-153 -3 -291.5 55.5t-237 158.5t-155.5 237t-55 286q-2 148 55 285t155.5 237t237 159t291.5 56zM831 158q152 0 275.5 69.5t195.5 197.5t72 292q0 123 -41.5 228
t-114 177t-172.5 113t-215 41q-235 0 -388.5 -156t-153.5 -405q0 -164 72 -292t195 -196.5t275 -68.5zM371 -55l-131 96l1052 1448l131 -96z" />
    <glyph glyph-name="Ugrave" unicode="&#xd9;" horiz-adv-x="1464" 
d="M141 1434h189v-842q0 -206 107 -320t294 -114q190 0 297 114t107 320v842h188v-861q0 -263 -161 -428t-431 -165t-430 165t-160 428v861zM647 1599l-248 244v29h240l178 -273h-170z" />
    <glyph glyph-name="Uacute" unicode="&#xda;" horiz-adv-x="1464" 
d="M141 1434h189v-842q0 -206 107 -320t294 -114q190 0 297 114t107 320v842h188v-861q0 -263 -161 -428t-431 -165t-430 165t-160 428v861zM647 1599l178 273h240v-29l-248 -244h-170z" />
    <glyph glyph-name="Ucircumflex" unicode="&#xdb;" horiz-adv-x="1464" 
d="M141 1434h189v-842q0 -206 107 -320t294 -114q190 0 297 114t107 320v842h188v-861q0 -263 -161 -428t-431 -165t-430 165t-160 428v861zM420 1599v29l248 217h127l247 -217v-29h-194l-117 142l-117 -142h-194z" />
    <glyph glyph-name="Udieresis" unicode="&#xdc;" horiz-adv-x="1464" 
d="M141 1434h189v-842q0 -206 107 -320t294 -114q190 0 297 114t107 320v842h188v-861q0 -263 -161 -428t-431 -165t-430 165t-160 428v861zM459 1624v203h198v-203h-198zM801 1624v203h198v-203h-198z" />
    <glyph glyph-name="Yacute" unicode="&#xdd;" horiz-adv-x="1376" 
d="M254 1434l434 -678l447 678h215l-568 -844v-590h-188v590l-565 844h225zM604 1599l178 273h240v-29l-248 -244h-170z" />
    <glyph glyph-name="Thorn" unicode="&#xde;" horiz-adv-x="1347" 
d="M344 301v-301h-188v1434h188v-289h444q216 0 340.5 -120.5t124.5 -301.5q0 -178 -127.5 -300t-337.5 -122h-444zM344 477h428q129 0 206 65t77 181q0 115 -76.5 179.5t-206.5 64.5h-428v-490z" />
    <glyph glyph-name="germandbls" unicode="&#xdf;" horiz-adv-x="1208" 
d="M692 141q106 0 172 76t66 215q0 102 -54.5 177.5t-141.5 112t-193 36.5v155q109 6 179.5 63.5t70.5 153.5q0 79 -50 123.5t-137 44.5q-92 0 -144 -59t-52 -168v-1071h-177v758h-176v155h176v168q0 171 102.5 272t270.5 101q162 0 258 -84t96 -221q0 -100 -55 -174
t-143 -115q157 -33 251.5 -144t94.5 -280q0 -201 -117 -328.5t-293 -127.5q-118 0 -217 51l31 168q85 -58 182 -58z" />
    <glyph glyph-name="agrave" unicode="&#xe0;" horiz-adv-x="1054" 
d="M92 276q0 145 99 223.5t262 78.5q104 0 206 -31l89 -25v101q0 104 -66.5 161.5t-177.5 57.5q-104 0 -171.5 -53.5t-86.5 -147.5l-160 45q30 141 140 223t278 82q197 0 305.5 -101t108.5 -282v-608h-170v154q-37 -79 -127.5 -126.5t-206.5 -47.5q-136 0 -230 79
q-92 83 -92 217zM748 362v21l-91 27q-102 30 -180 30q-95 0 -149 -39.5t-54 -113.5q0 -69 52 -110.5t147 -41.5q123 0 199 61.5t76 165.5zM418 1137l-248 243v29h240l178 -272h-170z" />
    <glyph glyph-name="aacute" unicode="&#xe1;" horiz-adv-x="1054" 
d="M92 276q0 145 99 223.5t262 78.5q104 0 206 -31l89 -25v101q0 104 -66.5 161.5t-177.5 57.5q-104 0 -171.5 -53.5t-86.5 -147.5l-160 45q30 141 140 223t278 82q197 0 305.5 -101t108.5 -282v-608h-170v154q-37 -79 -127.5 -126.5t-206.5 -47.5q-136 0 -230 79
q-92 83 -92 217zM748 362v21l-91 27q-102 30 -180 30q-95 0 -149 -39.5t-54 -113.5q0 -69 52 -110.5t147 -41.5q123 0 199 61.5t76 165.5zM420 1137l178 272h240v-29l-248 -243h-170z" />
    <glyph glyph-name="acircumflex" unicode="&#xe2;" horiz-adv-x="1054" 
d="M92 276q0 145 99 223.5t262 78.5q104 0 206 -31l89 -25v101q0 104 -66.5 161.5t-177.5 57.5q-104 0 -171.5 -53.5t-86.5 -147.5l-160 45q30 141 140 223t278 82q197 0 305.5 -101t108.5 -282v-608h-170v154q-37 -79 -127.5 -126.5t-206.5 -47.5q-136 0 -230 79
q-92 83 -92 217zM748 362v21l-91 27q-102 30 -180 30q-95 0 -149 -39.5t-54 -113.5q0 -69 52 -110.5t147 -41.5q123 0 199 61.5t76 165.5zM193 1137v28l247 217h127l248 -217v-28h-194l-117 141l-117 -141h-194z" />
    <glyph glyph-name="atilde" unicode="&#xe3;" horiz-adv-x="1054" 
d="M92 276q0 145 99 223.5t262 78.5q104 0 206 -31l89 -25v101q0 104 -66.5 161.5t-177.5 57.5q-104 0 -171.5 -53.5t-86.5 -147.5l-160 45q30 141 140 223t278 82q197 0 305.5 -101t108.5 -282v-608h-170v154q-37 -79 -127.5 -126.5t-206.5 -47.5q-136 0 -230 79
q-92 83 -92 217zM748 362v21l-91 27q-102 30 -180 30q-95 0 -149 -39.5t-54 -113.5q0 -69 52 -110.5t147 -41.5q123 0 199 61.5t76 165.5zM473 1206q-26 24 -44.5 33.5t-43.5 9.5q-30 0 -50 -19t-20 -50q0 -16 7 -33l-129 16q-5 20 -5 33q0 79 54.5 130.5t134.5 51.5
q53 0 86 -14.5t72 -48.5q26 -24 44.5 -33.5t43.5 -9.5q30 0 49.5 18.5t19.5 50.5q0 18 -6 33l131 -16q4 -16 4 -33q0 -79 -55 -130.5t-135 -51.5q-53 0 -86 14.5t-72 48.5z" />
    <glyph glyph-name="adieresis" unicode="&#xe4;" horiz-adv-x="1054" 
d="M92 276q0 145 99 223.5t262 78.5q104 0 206 -31l89 -25v101q0 104 -66.5 161.5t-177.5 57.5q-104 0 -171.5 -53.5t-86.5 -147.5l-160 45q30 141 140 223t278 82q197 0 305.5 -101t108.5 -282v-608h-170v154q-37 -79 -127.5 -126.5t-206.5 -47.5q-136 0 -230 79
q-92 83 -92 217zM748 362v21l-91 27q-102 30 -180 30q-95 0 -149 -39.5t-54 -113.5q0 -69 52 -110.5t147 -41.5q123 0 199 61.5t76 165.5zM231 1161v203h199v-203h-199zM573 1161v203h199v-203h-199z" />
    <glyph glyph-name="aring" unicode="&#xe5;" horiz-adv-x="1054" 
d="M92 276q0 145 99 223.5t262 78.5q104 0 206 -31l89 -25v101q0 104 -66.5 161.5t-177.5 57.5q-104 0 -171.5 -53.5t-86.5 -147.5l-160 45q30 141 140 223t278 82q197 0 305.5 -101t108.5 -282v-608h-170v154q-37 -79 -127.5 -126.5t-206.5 -47.5q-136 0 -230 79
q-92 83 -92 217zM748 362v21l-91 27q-102 30 -180 30q-95 0 -149 -39.5t-54 -113.5q0 -69 52 -110.5t147 -41.5q123 0 199 61.5t76 165.5zM324 1284q0 75 52.5 128.5t127.5 53.5t128.5 -53.5t53.5 -128.5t-53.5 -127.5t-128.5 -52.5t-127.5 52.5t-52.5 127.5zM584 1284
q0 32 -24 56t-56 24t-56 -24t-24 -56t24 -56t56 -24t56 24t24 56z" />
    <glyph glyph-name="ae" unicode="&#xe6;" horiz-adv-x="1728" 
d="M92 283q0 147 96.5 225t264.5 78h286v37q0 105 -64.5 162t-178.5 57q-103 0 -170 -50t-86 -141l-154 43q32 142 139 219.5t271 77.5q126 0 217 -44.5t139 -127.5q58 80 150 126t200 46q193 0 311 -112q121 -112 121 -301q0 -46 -12 -119h-702q1 -154 87.5 -240t221.5 -86
q219 0 280 219l152 -59q-51 -151 -159.5 -232t-272.5 -81q-137 0 -243 61t-157 170q-123 -231 -405 -231q-148 0 -240 86t-92 217zM918 586h538q2 6 2 28q0 102 -73.5 162t-186.5 60t-190 -67.5t-90 -182.5zM739 383v68h-252q-99 0 -158 -43.5t-59 -120.5q0 -73 51 -112.5
t142 -39.5q125 0 200.5 66.5t75.5 181.5z" />
    <glyph glyph-name="ccedilla" unicode="&#xe7;" horiz-adv-x="1126" 
d="M584 135q136 0 213.5 74.5t107.5 216.5l158 -59q-41 -184 -166 -285.5t-309 -101.5q-229 0 -369.5 141t-140.5 371q0 107 39 200.5t105 158.5t155.5 102.5t187.5 37.5q177 0 296.5 -92.5t154.5 -257.5l-162 -49q-23 116 -98 180t-193 64q-57 0 -112 -23t-100.5 -65
t-73 -109t-27.5 -147q0 -157 99.5 -257t234.5 -100zM524 -109q19 21 48 34.5t55 13.5q70 0 113.5 -42.5t43.5 -115.5q0 -77 -48 -121.5t-124 -44.5q-71 0 -120.5 35.5t-61.5 101.5l96 25q5 -31 27.5 -50.5t54.5 -19.5q38 0 60 20.5t22 53.5t-22.5 54.5t-59.5 21.5
q-24 0 -45.5 -12t-32.5 -31l-96 18q23 80 43 201h105q-29 -93 -58 -142z" />
    <glyph glyph-name="egrave" unicode="&#xe8;" horiz-adv-x="1069" 
d="M848 352l153 -59q-50 -151 -160 -232t-274 -81q-216 0 -352.5 140t-136.5 372q0 139 57.5 252.5t164 180t241.5 66.5q195 0 313 -112q119 -110 119 -301q0 -64 -12 -119h-703q1 -153 88 -238.5t221 -85.5q220 0 281 217zM258 586h539l2 28q0 102 -73.5 162t-186.5 60
t-190.5 -67.5t-90.5 -182.5zM455 1137l-248 243v29h239l179 -272h-170z" />
    <glyph glyph-name="eacute" unicode="&#xe9;" horiz-adv-x="1069" 
d="M848 352l153 -59q-50 -151 -160 -232t-274 -81q-216 0 -352.5 140t-136.5 372q0 139 57.5 252.5t164 180t241.5 66.5q195 0 313 -112q119 -110 119 -301q0 -64 -12 -119h-703q1 -153 88 -238.5t221 -85.5q220 0 281 217zM258 586h539l2 28q0 102 -73.5 162t-186.5 60
t-190.5 -67.5t-90.5 -182.5zM457 1137l178 272h239v-29l-247 -243h-170z" />
    <glyph glyph-name="ecircumflex" unicode="&#xea;" horiz-adv-x="1069" 
d="M848 352l153 -59q-50 -151 -160 -232t-274 -81q-216 0 -352.5 140t-136.5 372q0 139 57.5 252.5t164 180t241.5 66.5q195 0 313 -112q119 -110 119 -301q0 -64 -12 -119h-703q1 -153 88 -238.5t221 -85.5q220 0 281 217zM258 586h539l2 28q0 102 -73.5 162t-186.5 60
t-190.5 -67.5t-90.5 -182.5zM229 1137v28l248 217h127l248 -217v-28h-195l-116 141l-117 -141h-195z" />
    <glyph glyph-name="edieresis" unicode="&#xeb;" horiz-adv-x="1069" 
d="M848 352l153 -59q-50 -151 -160 -232t-274 -81q-216 0 -352.5 140t-136.5 372q0 139 57.5 252.5t164 180t241.5 66.5q195 0 313 -112q119 -110 119 -301q0 -64 -12 -119h-703q1 -153 88 -238.5t221 -85.5q220 0 281 217zM258 586h539l2 28q0 102 -73.5 162t-186.5 60
t-190.5 -67.5t-90.5 -182.5zM268 1161v203h199v-203h-199zM610 1161v203h199v-203h-199z" />
    <glyph glyph-name="igrave" unicode="&#xec;" horiz-adv-x="450" 
d="M137 971h176v-971h-176v971zM139 1137l-248 243v29h240l178 -272h-170z" />
    <glyph glyph-name="iacute" unicode="&#xed;" horiz-adv-x="450" 
d="M137 971h176v-971h-176v971zM141 1137l178 272h240v-29l-248 -243h-170z" />
    <glyph glyph-name="icircumflex" unicode="&#xee;" horiz-adv-x="450" 
d="M137 971h176v-971h-176v971zM-86 1137v28l248 217h127l248 -217v-28h-195l-117 141l-116 -141h-195z" />
    <glyph glyph-name="idieresis" unicode="&#xef;" horiz-adv-x="450" 
d="M137 971h176v-971h-176v971zM-47 1161v203h199v-203h-199zM295 1161v203h199v-203h-199z" />
    <glyph glyph-name="eth" unicode="&#xf0;" horiz-adv-x="1130" 
d="M78 481q0 144 59.5 260t169 183t250.5 67q84 0 157.5 -36t121.5 -99q-52 163 -185 299l-76 -88l-110 92l78 90q-37 29 -111 78l107 127q39 -26 112 -82l72 82l111 -92l-76 -86q295 -298 295 -756q0 -242 -134.5 -391t-353.5 -149q-217 0 -352 141.5t-135 359.5zM872 481
q0 154 -86 252t-221 98t-221 -98t-86 -252q0 -153 85 -247.5t222 -94.5t222 94.5t85 247.5z" />
    <glyph glyph-name="ntilde" unicode="&#xf1;" horiz-adv-x="1112" 
d="M313 0h-176v971h176v-158q51 85 134.5 131.5t185.5 46.5q157 0 249.5 -95.5t92.5 -264.5v-631h-178v578q0 126 -58 192t-164 66q-113 0 -187.5 -83.5t-74.5 -220.5v-532zM547 1206q-26 24 -44.5 33.5t-43.5 9.5q-30 0 -50 -19t-20 -50q0 -18 6 -33l-129 16q-4 16 -4 33
q0 79 54.5 130.5t134.5 51.5q53 0 85.5 -14.5t71.5 -48.5q26 -24 44.5 -33.5t43.5 -9.5q30 0 50 19t20 50q0 18 -6 33l131 -16q4 -16 4 -33q0 -79 -55 -130.5t-135 -51.5q-53 0 -86 14.5t-72 48.5z" />
    <glyph glyph-name="ograve" unicode="&#xf2;" horiz-adv-x="1138" 
d="M78 485q0 218 137 362t354 144q145 0 258 -66.5t174.5 -181.5t61.5 -258q0 -217 -139 -361t-355 -144q-217 0 -354 143.5t-137 361.5zM881 485q0 154 -88 248q-85 98 -224 98q-135 0 -223 -97t-88 -249t88 -249t223 -97q137 0 224.5 96.5t87.5 249.5zM483 1137l-247 243
v29h239l178 -272h-170z" />
    <glyph glyph-name="oacute" unicode="&#xf3;" horiz-adv-x="1138" 
d="M78 485q0 218 137 362t354 144q145 0 258 -66.5t174.5 -181.5t61.5 -258q0 -217 -139 -361t-355 -144q-217 0 -354 143.5t-137 361.5zM881 485q0 154 -88 248q-85 98 -224 98q-135 0 -223 -97t-88 -249t88 -249t223 -97q137 0 224.5 96.5t87.5 249.5zM485 1137l179 272
h239v-29l-248 -243h-170z" />
    <glyph glyph-name="ocircumflex" unicode="&#xf4;" horiz-adv-x="1138" 
d="M78 485q0 218 137 362t354 144q145 0 258 -66.5t174.5 -181.5t61.5 -258q0 -217 -139 -361t-355 -144q-217 0 -354 143.5t-137 361.5zM881 485q0 154 -88 248q-85 98 -224 98q-135 0 -223 -97t-88 -249t88 -249t223 -97q137 0 224.5 96.5t87.5 249.5zM258 1137v28
l248 217h127l248 -217v-28h-195l-117 141l-116 -141h-195z" />
    <glyph glyph-name="otilde" unicode="&#xf5;" horiz-adv-x="1138" 
d="M78 485q0 218 137 362t354 144q145 0 258 -66.5t174.5 -181.5t61.5 -258q0 -217 -139 -361t-355 -144q-217 0 -354 143.5t-137 361.5zM881 485q0 154 -88 248q-85 98 -224 98q-135 0 -223 -97t-88 -249t88 -249t223 -97q137 0 224.5 96.5t87.5 249.5zM539 1206
q-26 24 -44.5 33.5t-43.5 9.5q-30 0 -50 -19t-20 -50q0 -18 6 -33l-129 16q-4 16 -4 33q0 79 54 130.5t134 51.5q53 0 86 -14.5t72 -48.5q26 -24 44.5 -33.5t43.5 -9.5q30 0 50 19t20 50q0 18 -6 33l131 -16q4 -16 4 -33q0 -79 -55.5 -130.5t-135.5 -51.5q-53 0 -85.5 14.5
t-71.5 48.5z" />
    <glyph glyph-name="odieresis" unicode="&#xf6;" horiz-adv-x="1138" 
d="M78 485q0 218 137 362t354 144q145 0 258 -66.5t174.5 -181.5t61.5 -258q0 -217 -139 -361t-355 -144q-217 0 -354 143.5t-137 361.5zM881 485q0 154 -88 248q-85 98 -224 98q-135 0 -223 -97t-88 -249t88 -249t223 -97q137 0 224.5 96.5t87.5 249.5zM297 1161v203h199
v-203h-199zM639 1161v203h199v-203h-199z" />
    <glyph glyph-name="divide" unicode="&#xf7;" horiz-adv-x="1165" 
d="M487 838v192h191v-192h-191zM131 537v155h905v-155h-905zM487 199v192h191v-192h-191z" />
    <glyph glyph-name="oslash" unicode="&#xf8;" horiz-adv-x="1138" 
d="M1063 485q0 -217 -139 -361t-355 -144q-60 0 -96 8l-37 -101l-151 56l37 98q-115 63 -179.5 180.5t-64.5 263.5q0 218 137 362t354 144q63 0 99 -8l37 100l149 -55l-37 -98q116 -63 181 -180.5t65 -264.5zM381 203l229 626q-8 2 -41 2q-135 0 -223 -97t-88 -249
q0 -180 123 -282zM881 485q0 181 -123 283l-230 -627q10 -2 41 -2q137 0 224.5 96.5t87.5 249.5z" />
    <glyph glyph-name="ugrave" unicode="&#xf9;" horiz-adv-x="1116" 
d="M803 971h178v-971h-178v164q-51 -87 -132.5 -135.5t-185.5 -48.5q-162 0 -255 95.5t-93 272.5v623h176v-582q0 -126 56 -190t163 -64q118 0 194.5 88t76.5 232v516zM473 1137l-248 243v29h240l178 -272h-170z" />
    <glyph glyph-name="uacute" unicode="&#xfa;" horiz-adv-x="1116" 
d="M803 971h178v-971h-178v164q-51 -87 -132.5 -135.5t-185.5 -48.5q-162 0 -255 95.5t-93 272.5v623h176v-582q0 -126 56 -190t163 -64q118 0 194.5 88t76.5 232v516zM475 1137l178 272h240v-29l-248 -243h-170z" />
    <glyph glyph-name="ucircumflex" unicode="&#xfb;" horiz-adv-x="1116" 
d="M803 971h178v-971h-178v164q-51 -87 -132.5 -135.5t-185.5 -48.5q-162 0 -255 95.5t-93 272.5v623h176v-582q0 -126 56 -190t163 -64q118 0 194.5 88t76.5 232v516zM248 1137v28l248 217h127l247 -217v-28h-194l-117 141l-117 -141h-194z" />
    <glyph glyph-name="udieresis" unicode="&#xfc;" horiz-adv-x="1116" 
d="M803 971h178v-971h-178v164q-51 -87 -132.5 -135.5t-185.5 -48.5q-162 0 -255 95.5t-93 272.5v623h176v-582q0 -126 56 -190t163 -64q118 0 194.5 88t76.5 232v516zM287 1161v203h198v-203h-198zM629 1161v203h198v-203h-198z" />
    <glyph glyph-name="yacute" unicode="&#xfd;" horiz-adv-x="985" 
d="M770 971h188l-622 -1377h-189l240 531l-371 846h193l272 -639zM397 1137l178 272h240v-29l-248 -243h-170z" />
    <glyph glyph-name="thorn" unicode="&#xfe;" horiz-adv-x="1173" 
d="M137 1434h176v-635q49 84 141.5 138t198.5 54q197 0 320 -140.5t123 -365.5q0 -224 -128 -364.5t-327 -140.5q-105 0 -193 45.5t-135 126.5v-558h-176v1840zM612 137q127 0 217.5 92.5t90.5 253.5q0 160 -90.5 254t-217.5 94q-121 0 -214 -97t-93 -251t93 -250t214 -96z
" />
    <glyph glyph-name="ydieresis" unicode="&#xff;" horiz-adv-x="985" 
d="M770 971h188l-622 -1377h-189l240 531l-371 846h193l272 -639zM209 1161v203h199v-203h-199zM551 1161v203h199v-203h-199z" />
    <glyph glyph-name="Amacron" unicode="&#x100;" horiz-adv-x="1513" 
d="M27 0l600 1434h262l600 -1434h-209l-147 365h-750l-150 -365h-206zM451 537h612l-305 747zM498 1794h520v-141h-520v141z" />
    <glyph glyph-name="amacron" unicode="&#x101;" horiz-adv-x="1054" 
d="M92 276q0 145 99 223.5t262 78.5q104 0 206 -31l89 -25v101q0 104 -66.5 161.5t-177.5 57.5q-104 0 -171.5 -53.5t-86.5 -147.5l-160 45q30 141 140 223t278 82q197 0 305.5 -101t108.5 -282v-608h-170v154q-37 -79 -127.5 -126.5t-206.5 -47.5q-136 0 -230 79
q-92 83 -92 217zM748 362v21l-91 27q-102 30 -180 30q-95 0 -149 -39.5t-54 -113.5q0 -69 52 -110.5t147 -41.5q123 0 199 61.5t76 165.5zM242 1331h520v-141h-520v141z" />
    <glyph glyph-name="Abreve" unicode="&#x102;" horiz-adv-x="1513" 
d="M27 0l600 1434h262l600 -1434h-209l-147 365h-750l-150 -365h-206zM451 537h612l-305 747zM1008 1821q0 -106 -70 -165t-180 -59t-180 59t-70 165q0 22 2 28h139l-2 -22q0 -45 30.5 -74t80.5 -29t80 29t30 74l-2 22h140q2 -6 2 -28z" />
    <glyph glyph-name="abreve" unicode="&#x103;" horiz-adv-x="1054" 
d="M92 276q0 145 99 223.5t262 78.5q104 0 206 -31l89 -25v101q0 104 -66.5 161.5t-177.5 57.5q-104 0 -171.5 -53.5t-86.5 -147.5l-160 45q30 141 140 223t278 82q197 0 305.5 -101t108.5 -282v-608h-170v154q-37 -79 -127.5 -126.5t-206.5 -47.5q-136 0 -230 79
q-92 83 -92 217zM748 362v21l-91 27q-102 30 -180 30q-95 0 -149 -39.5t-54 -113.5q0 -69 52 -110.5t147 -41.5q123 0 199 61.5t76 165.5zM754 1358q0 -105 -70 -164t-180 -59t-180 59t-70 164q0 22 2 28h139l-2 -22q0 -45 30.5 -73.5t80.5 -28.5t80 28.5t30 73.5l-2 22h140
q2 -6 2 -28z" />
    <glyph glyph-name="Aogonek" unicode="&#x104;" horiz-adv-x="1513" 
d="M27 0l600 1434h262l600 -1434h-209l-147 365h-750l-150 -365h-206zM451 537h612l-305 747zM1409 -385q-80 0 -130 48.5t-50 121.5q0 132 139 215h121q-125 -78 -125 -162q0 -35 23.5 -56.5t60.5 -21.5q32 0 70 23l55 -125q-79 -43 -164 -43z" />
    <glyph glyph-name="aogonek" unicode="&#x105;" horiz-adv-x="1054" 
d="M92 276q0 145 99 223.5t262 78.5q104 0 206 -31l89 -25v101q0 104 -66.5 161.5t-177.5 57.5q-104 0 -171.5 -53.5t-86.5 -147.5l-160 45q30 141 140 223t278 82q197 0 305.5 -101t108.5 -282v-608h-170v154q-37 -79 -127.5 -126.5t-206.5 -47.5q-136 0 -230 79
q-92 83 -92 217zM748 362v21l-91 27q-102 30 -180 30q-95 0 -149 -39.5t-54 -113.5q0 -69 52 -110.5t147 -41.5q123 0 199 61.5t76 165.5zM838 -385q-81 0 -131 48.5t-50 121.5q0 132 140 215h121q-125 -78 -125 -162q0 -35 23.5 -56.5t60.5 -21.5q31 0 69 23l55 -125
q-79 -43 -163 -43z" />
    <glyph glyph-name="Cacute" unicode="&#x106;" horiz-adv-x="1591" 
d="M289 717q0 -262 144 -413.5t376 -151.5q239 0 369 124q131 125 178 334l166 -67q-57 -253 -244 -408t-469 -155q-211 -2 -376.5 95t-254.5 265.5t-86 376.5q-2 152 53.5 289.5t151 236.5t230 156.5t282.5 54.5q264 0 420 -135q159 -135 215 -342l-172 -78
q-38 176 -158 279.5t-305 103.5q-109 0 -204.5 -40.5t-165.5 -112.5t-110 -179t-40 -233zM715 1599l178 273h240v-29l-248 -244h-170z" />
    <glyph glyph-name="cacute" unicode="&#x107;" horiz-adv-x="1126" 
d="M584 135q136 0 213.5 74.5t107.5 216.5l158 -59q-41 -184 -166 -285.5t-309 -101.5q-229 0 -369.5 141t-140.5 371q0 107 39 200.5t105 158.5t155.5 102.5t187.5 37.5q177 0 296.5 -92.5t154.5 -257.5l-162 -49q-23 116 -98 180t-193 64q-57 0 -112 -23t-100.5 -65
t-73 -109t-27.5 -147q0 -157 99.5 -257t234.5 -100zM481 1137l178 272h240v-29l-248 -243h-170z" />
    <glyph glyph-name="Ccircumflex" unicode="&#x108;" horiz-adv-x="1591" 
d="M289 717q0 -262 144 -413.5t376 -151.5q239 0 369 124q131 125 178 334l166 -67q-57 -253 -244 -408t-469 -155q-211 -2 -376.5 95t-254.5 265.5t-86 376.5q-2 152 53.5 289.5t151 236.5t230 156.5t282.5 54.5q264 0 420 -135q159 -135 215 -342l-172 -78
q-38 176 -158 279.5t-305 103.5q-109 0 -204.5 -40.5t-165.5 -112.5t-110 -179t-40 -233zM487 1599v29l248 217h127l248 -217v-29h-195l-116 142l-117 -142h-195z" />
    <glyph glyph-name="ccircumflex" unicode="&#x109;" horiz-adv-x="1126" 
d="M584 135q136 0 213.5 74.5t107.5 216.5l158 -59q-41 -184 -166 -285.5t-309 -101.5q-229 0 -369.5 141t-140.5 371q0 107 39 200.5t105 158.5t155.5 102.5t187.5 37.5q177 0 296.5 -92.5t154.5 -257.5l-162 -49q-23 116 -98 180t-193 64q-57 0 -112 -23t-100.5 -65
t-73 -109t-27.5 -147q0 -157 99.5 -257t234.5 -100zM254 1137v28l248 217h127l248 -217v-28h-195l-117 141l-116 -141h-195z" />
    <glyph glyph-name="Cdotaccent" unicode="&#x10a;" horiz-adv-x="1591" 
d="M289 717q0 -262 144 -413.5t376 -151.5q239 0 369 124q131 125 178 334l166 -67q-57 -253 -244 -408t-469 -155q-211 -2 -376.5 95t-254.5 265.5t-86 376.5q-2 152 53.5 289.5t151 236.5t230 156.5t282.5 54.5q264 0 420 -135q159 -135 215 -342l-172 -78
q-38 176 -158 279.5t-305 103.5q-109 0 -204.5 -40.5t-165.5 -112.5t-110 -179t-40 -233zM700 1829h197v-205h-197v205z" />
    <glyph glyph-name="cdotaccent" unicode="&#x10b;" horiz-adv-x="1126" 
d="M584 135q136 0 213.5 74.5t107.5 216.5l158 -59q-41 -184 -166 -285.5t-309 -101.5q-229 0 -369.5 141t-140.5 371q0 107 39 200.5t105 158.5t155.5 102.5t187.5 37.5q177 0 296.5 -92.5t154.5 -257.5l-162 -49q-23 116 -98 180t-193 64q-57 0 -112 -23t-100.5 -65
t-73 -109t-27.5 -147q0 -157 99.5 -257t234.5 -100zM467 1151v207h197v-207h-197z" />
    <glyph glyph-name="Ccaron" unicode="&#x10c;" horiz-adv-x="1591" 
d="M289 717q0 -262 144 -413.5t376 -151.5q239 0 369 124q131 125 178 334l166 -67q-57 -253 -244 -408t-469 -155q-211 -2 -376.5 95t-254.5 265.5t-86 376.5q-2 152 53.5 289.5t151 236.5t230 156.5t282.5 54.5q264 0 420 -135q159 -135 215 -342l-172 -78
q-38 176 -158 279.5t-305 103.5q-109 0 -204.5 -40.5t-165.5 -112.5t-110 -179t-40 -233zM735 1599l-248 218v28h195l117 -141l116 141h195v-28l-248 -218h-127z" />
    <glyph glyph-name="ccaron" unicode="&#x10d;" horiz-adv-x="1126" 
d="M584 135q136 0 213.5 74.5t107.5 216.5l158 -59q-41 -184 -166 -285.5t-309 -101.5q-229 0 -369.5 141t-140.5 371q0 107 39 200.5t105 158.5t155.5 102.5t187.5 37.5q177 0 296.5 -92.5t154.5 -257.5l-162 -49q-23 116 -98 180t-193 64q-57 0 -112 -23t-100.5 -65
t-73 -109t-27.5 -147q0 -157 99.5 -257t234.5 -100zM506 1137l-248 217v28h195l116 -141l117 141h195v-28l-248 -217h-127z" />
    <glyph glyph-name="Dcaron" unicode="&#x10e;" horiz-adv-x="1486" 
d="M156 0v1434h532q223 0 384.5 -92.5t243 -255t81.5 -375.5q0 -154 -48 -284t-137.5 -225t-224 -148.5t-299.5 -53.5h-532zM344 1262v-1090h344q163 0 282 70.5t178.5 191t59.5 277.5q0 255 -136.5 403t-383.5 148h-344zM524 1599l-248 218v28h195l117 -141l117 141h194
v-28l-248 -218h-127z" />
    <glyph glyph-name="dcaron" unicode="&#x10f;" horiz-adv-x="1374" 
d="M78 479q0 226 126 369t324 143q111 0 197.5 -52t134.5 -144v639h178v-1434h-170v174q-50 -89 -139 -141.5t-197 -52.5q-201 0 -327.5 138.5t-126.5 360.5zM868 481q0 154 -93 252t-214 98q-124 0 -215.5 -96.5t-91.5 -253.5q0 -158 90.5 -251t216.5 -93q58 0 112.5 23.5
t98 66.5t70 109t26.5 145zM1137 1006v106h51q80 0 80 62q0 29 -18.5 45t-51.5 16h-37v199h213v-250q0 -89 -51 -133.5t-139 -44.5h-47z" />
    <glyph glyph-name="Dcroat" unicode="&#x110;" horiz-adv-x="1486" 
d="M156 0v1434h532q223 0 384.5 -92.5t243 -255t81.5 -375.5q0 -154 -48 -284t-137.5 -225t-224 -148.5t-299.5 -53.5h-532zM344 1262v-1090h344q163 0 282 70.5t178.5 191t59.5 277.5q0 255 -136.5 403t-383.5 148h-344zM-10 793h770v-154h-770v154z" />
    <glyph glyph-name="dslash" unicode="&#x111;" horiz-adv-x="1173" 
d="M78 479q0 226 126 369t324 143q111 0 197.5 -52t134.5 -144v639h178v-1434h-170v174q-50 -89 -139 -141.5t-197 -52.5q-201 0 -327.5 138.5t-126.5 360.5zM868 481q0 154 -93 252t-214 98q-124 0 -215.5 -96.5t-91.5 -253.5q0 -158 90.5 -251t216.5 -93q58 0 112.5 23.5
t98 66.5t70 109t26.5 145zM551 1292h625v-143h-625v143z" />
    <glyph glyph-name="Emacron" unicode="&#x112;" horiz-adv-x="1296" 
d="M156 1434h1009v-179h-821v-424h760v-178h-760v-475h842v-178h-1030v1434zM399 1794h521v-141h-521v141z" />
    <glyph glyph-name="emacron" unicode="&#x113;" horiz-adv-x="1069" 
d="M848 352l153 -59q-50 -151 -160 -232t-274 -81q-216 0 -352.5 140t-136.5 372q0 139 57.5 252.5t164 180t241.5 66.5q195 0 313 -112q119 -110 119 -301q0 -64 -12 -119h-703q1 -153 88 -238.5t221 -85.5q220 0 281 217zM258 586h539l2 28q0 102 -73.5 162t-186.5 60
t-190.5 -67.5t-90.5 -182.5zM279 1331h520v-141h-520v141z" />
    <glyph glyph-name="Ebreve" unicode="&#x114;" horiz-adv-x="1296" 
d="M156 1434h1009v-179h-821v-424h760v-178h-760v-475h842v-178h-1030v1434zM909 1821q0 -106 -70 -165t-180 -59q-109 0 -179 59t-70 165q0 22 2 28h139l-2 -22q0 -45 30 -74t80 -29t80.5 29t30.5 74l-2 22h139q2 -6 2 -28z" />
    <glyph glyph-name="ebreve" unicode="&#x115;" horiz-adv-x="1069" 
d="M848 352l153 -59q-50 -151 -160 -232t-274 -81q-216 0 -352.5 140t-136.5 372q0 139 57.5 252.5t164 180t241.5 66.5q195 0 313 -112q119 -110 119 -301q0 -64 -12 -119h-703q1 -153 88 -238.5t221 -85.5q220 0 281 217zM258 586h539l2 28q0 102 -73.5 162t-186.5 60
t-190.5 -67.5t-90.5 -182.5zM791 1358q0 -105 -70 -164t-180 -59t-180 59t-70 164q0 22 2 28h139l-2 -22q0 -45 30.5 -73.5t80.5 -28.5t80 28.5t30 73.5l-2 22h139q3 -9 3 -28z" />
    <glyph glyph-name="Edotaccent" unicode="&#x116;" horiz-adv-x="1296" 
d="M156 1434h1009v-179h-821v-424h760v-178h-760v-475h842v-178h-1030v1434zM561 1829h197v-205h-197v205z" />
    <glyph glyph-name="edotaccent" unicode="&#x117;" horiz-adv-x="1069" 
d="M848 352l153 -59q-50 -151 -160 -232t-274 -81q-216 0 -352.5 140t-136.5 372q0 139 57.5 252.5t164 180t241.5 66.5q195 0 313 -112q119 -110 119 -301q0 -64 -12 -119h-703q1 -153 88 -238.5t221 -85.5q220 0 281 217zM258 586h539l2 28q0 102 -73.5 162t-186.5 60
t-190.5 -67.5t-90.5 -182.5zM442 1151v207h197v-207h-197z" />
    <glyph glyph-name="Eogonek" unicode="&#x118;" horiz-adv-x="1296" 
d="M156 1434h1009v-179h-821v-424h760v-178h-760v-475h842v-178h-1030v1434zM1106 -385q-80 0 -130 48.5t-50 121.5q0 132 139 215h121q-125 -78 -125 -162q0 -35 23.5 -56.5t60.5 -21.5q31 0 69 23l56 -125q-79 -43 -164 -43z" />
    <glyph glyph-name="eogonek" unicode="&#x119;" horiz-adv-x="1069" 
d="M848 352l153 -59q-50 -151 -160 -232t-274 -81q-216 0 -352.5 140t-136.5 372q0 139 57.5 252.5t164 180t241.5 66.5q195 0 313 -112q119 -110 119 -301q0 -64 -12 -119h-703q1 -153 88 -238.5t221 -85.5q220 0 281 217zM258 586h539l2 28q0 102 -73.5 162t-186.5 60
t-190.5 -67.5t-90.5 -182.5zM608 -385q-80 0 -130 48.5t-50 121.5q0 132 139 215h121q-125 -78 -125 -162q0 -35 23.5 -56.5t60.5 -21.5q32 0 70 23l55 -125q-79 -43 -164 -43z" />
    <glyph glyph-name="Ecaron" unicode="&#x11a;" horiz-adv-x="1296" 
d="M156 1434h1009v-179h-821v-424h760v-178h-760v-475h842v-178h-1030v1434zM596 1599l-248 218v28h195l116 -141l117 141h195v-28l-248 -218h-127z" />
    <glyph glyph-name="ecaron" unicode="&#x11b;" horiz-adv-x="1069" 
d="M848 352l153 -59q-50 -151 -160 -232t-274 -81q-216 0 -352.5 140t-136.5 372q0 139 57.5 252.5t164 180t241.5 66.5q195 0 313 -112q119 -110 119 -301q0 -64 -12 -119h-703q1 -153 88 -238.5t221 -85.5q220 0 281 217zM258 586h539l2 28q0 102 -73.5 162t-186.5 60
t-190.5 -67.5t-90.5 -182.5zM481 1137l-248 217v28h195l117 -141l117 141h194v-28l-248 -217h-127z" />
    <glyph glyph-name="Gcircumflex" unicode="&#x11c;" horiz-adv-x="1613" 
d="M795 -20q-147 -2 -278.5 53.5t-225.5 153t-147.5 236t-51.5 294.5q-2 152 53.5 289.5t151 236.5t228.5 156.5t280 54.5q273 0 448 -130.5t232 -362.5l-185 -62q-91 377 -493 377q-106 0 -201 -41t-165 -113t-111 -177.5t-41 -227.5q0 -249 145.5 -404t382.5 -155
q97 0 180.5 38t138.5 98.5t88.5 130.5t43.5 140h-650v176h879v-741h-162v322q-87 -171 -218 -256.5t-322 -85.5zM492 1599v29l247 217h127l248 -217v-29h-194l-117 142l-117 -142h-194z" />
    <glyph glyph-name="gcircumflex" unicode="&#x11d;" horiz-adv-x="1179" 
d="M133 -127l160 68q58 -211 287 -211q140 0 212 89t72 255v108q-44 -84 -131.5 -133t-206.5 -49q-92 0 -174 34.5t-142.5 96.5t-96 152.5t-35.5 197.5q0 224 132 367t327 143q219 0 327 -166v146h178v-885q0 -230 -120 -371t-342 -141q-352 0 -447 299zM872 494
q0 148 -87.5 245t-219.5 97q-137 0 -224 -97t-87 -260q0 -147 87 -235t224 -88q133 0 220 95t87 243zM274 1137v28l248 217h127l248 -217v-28h-195l-116 141l-117 -141h-195z" />
    <glyph glyph-name="Gbreve" unicode="&#x11e;" horiz-adv-x="1613" 
d="M795 -20q-147 -2 -278.5 53.5t-225.5 153t-147.5 236t-51.5 294.5q-2 152 53.5 289.5t151 236.5t228.5 156.5t280 54.5q273 0 448 -130.5t232 -362.5l-185 -62q-91 377 -493 377q-106 0 -201 -41t-165 -113t-111 -177.5t-41 -227.5q0 -249 145.5 -404t382.5 -155
q97 0 180.5 38t138.5 98.5t88.5 130.5t43.5 140h-650v176h879v-741h-162v322q-87 -171 -218 -256.5t-322 -85.5zM1053 1821q0 -106 -70 -165t-180 -59t-180 59t-70 165q0 22 2 28h139l-2 -22q0 -45 30.5 -74t80.5 -29t80 29t30 74l-2 22h140q2 -6 2 -28z" />
    <glyph glyph-name="gbreve" unicode="&#x11f;" horiz-adv-x="1179" 
d="M133 -127l160 68q58 -211 287 -211q140 0 212 89t72 255v108q-44 -84 -131.5 -133t-206.5 -49q-92 0 -174 34.5t-142.5 96.5t-96 152.5t-35.5 197.5q0 224 132 367t327 143q219 0 327 -166v146h178v-885q0 -230 -120 -371t-342 -141q-352 0 -447 299zM872 494
q0 148 -87.5 245t-219.5 97q-137 0 -224 -97t-87 -260q0 -147 87 -235t224 -88q133 0 220 95t87 243zM836 1358q0 -105 -70 -164t-180 -59t-180 59t-70 164q0 22 2 28h139l-2 -22q0 -45 30.5 -73.5t80.5 -28.5t80 28.5t30 73.5l-2 22h140q2 -6 2 -28z" />
    <glyph glyph-name="Gdotaccent" unicode="&#x120;" horiz-adv-x="1613" 
d="M795 -20q-147 -2 -278.5 53.5t-225.5 153t-147.5 236t-51.5 294.5q-2 152 53.5 289.5t151 236.5t228.5 156.5t280 54.5q273 0 448 -130.5t232 -362.5l-185 -62q-91 377 -493 377q-106 0 -201 -41t-165 -113t-111 -177.5t-41 -227.5q0 -249 145.5 -404t382.5 -155
q97 0 180.5 38t138.5 98.5t88.5 130.5t43.5 140h-650v176h879v-741h-162v322q-87 -171 -218 -256.5t-322 -85.5zM705 1829h196v-205h-196v205z" />
    <glyph glyph-name="gdotaccent" unicode="&#x121;" horiz-adv-x="1179" 
d="M133 -127l160 68q58 -211 287 -211q140 0 212 89t72 255v108q-44 -84 -131.5 -133t-206.5 -49q-92 0 -174 34.5t-142.5 96.5t-96 152.5t-35.5 197.5q0 224 132 367t327 143q219 0 327 -166v146h178v-885q0 -230 -120 -371t-342 -141q-352 0 -447 299zM872 494
q0 148 -87.5 245t-219.5 97q-137 0 -224 -97t-87 -260q0 -147 87 -235t224 -88q133 0 220 95t87 243zM487 1151v207h197v-207h-197z" />
    <glyph glyph-name="Gcommaaccent" unicode="&#x122;" horiz-adv-x="1613" 
d="M795 -20q-147 -2 -278.5 53.5t-225.5 153t-147.5 236t-51.5 294.5q-2 152 53.5 289.5t151 236.5t228.5 156.5t280 54.5q273 0 448 -130.5t232 -362.5l-185 -62q-91 377 -493 377q-106 0 -201 -41t-165 -113t-111 -177.5t-41 -227.5q0 -249 145.5 -404t382.5 -155
q97 0 180.5 38t138.5 98.5t88.5 130.5t43.5 140h-650v176h879v-741h-162v322q-87 -171 -218 -256.5t-322 -85.5zM643 -508l21 96q43 -16 81 -16q33 0 52.5 17t19.5 49q0 61 -76 61h-36v195h213v-248q0 -172 -173 -172q-49 0 -102 18z" />
    <glyph glyph-name="gcommaaccent" unicode="&#x123;" horiz-adv-x="1179" 
d="M133 -127l160 68q58 -211 287 -211q140 0 212 89t72 255v108q-44 -84 -131.5 -133t-206.5 -49q-92 0 -174 34.5t-142.5 96.5t-96 152.5t-35.5 197.5q0 224 132 367t327 143q219 0 327 -166v146h178v-885q0 -230 -120 -371t-342 -141q-352 0 -447 299zM872 494
q0 148 -87.5 245t-219.5 97q-137 0 -224 -97t-87 -260q0 -147 87 -235t224 -88q133 0 220 95t87 243zM662 1110h-216v272q0 172 193 172h66v-106h-72q-37 0 -58.5 -16t-21.5 -46q0 -61 72 -61h37v-215z" />
    <glyph glyph-name="Hcircumflex" unicode="&#x124;" horiz-adv-x="1509" 
d="M1165 621h-821v-621h-188v1434h188v-641h821v641h189v-1434h-189v621zM442 1599v29l248 217h127l248 -217v-29h-195l-116 142l-117 -142h-195z" />
    <glyph glyph-name="hcircumflex" unicode="&#x125;" horiz-adv-x="1136" 
d="M313 0h-176v1434h176v-668q41 105 132.5 165t209.5 60q159 0 252.5 -98t93.5 -264v-629h-178v588q0 123 -60 187.5t-171 64.5q-119 0 -199 -94.5t-80 -243.5v-502zM-86 1599v29l248 217h127l248 -217v-29h-195l-117 142l-116 -142h-195z" />
    <glyph glyph-name="Hbar" unicode="&#x126;" horiz-adv-x="1509" 
d="M1165 621h-821v-621h-188v1434h188v-641h821v641h189v-1434h-189v621zM-4 1040v160h1517v-160h-1517z" />
    <glyph glyph-name="hbar" unicode="&#x127;" horiz-adv-x="1136" 
d="M313 0h-176v1434h176v-668q41 105 132.5 165t209.5 60q159 0 252.5 -98t93.5 -264v-629h-178v588q0 123 -60 187.5t-171 64.5q-119 0 -199 -94.5t-80 -243.5v-502zM0 1292h625v-143h-625v143z" />
    <glyph glyph-name="Itilde" unicode="&#x128;" horiz-adv-x="497" 
d="M156 0v1434h188v-1434h-188zM219 1669q-26 24 -44.5 33.5t-43.5 9.5q-30 0 -50 -19t-20 -51q0 -14 7 -32l-129 16q-5 20 -5 33q0 79 54.5 130.5t134.5 51.5q53 0 86 -14.5t72 -48.5q26 -24 44.5 -33.5t43.5 -9.5q30 0 49.5 18.5t19.5 50.5q0 18 -6 33l131 -16
q4 -16 4 -33q0 -79 -55 -130.5t-135 -51.5q-53 0 -86 14.5t-72 48.5z" />
    <glyph glyph-name="itilde" unicode="&#x129;" horiz-adv-x="450" 
d="M137 971h176v-971h-176v971zM195 1206q-26 24 -44.5 33.5t-44.5 9.5q-30 0 -49.5 -18.5t-19.5 -50.5q0 -18 6 -33l-129 16q-4 16 -4 33q0 79 54 130.5t134 51.5q53 0 86 -14.5t72 -48.5q26 -24 44.5 -33.5t43.5 -9.5q30 0 50 19t20 50q0 18 -6 33l131 -16q4 -16 4 -33
q0 -79 -55.5 -130.5t-135.5 -51.5q-53 0 -85.5 14.5t-71.5 48.5z" />
    <glyph glyph-name="Imacron" unicode="&#x12a;" horiz-adv-x="497" 
d="M156 0v1434h188v-1434h-188zM-10 1794h520v-141h-520v141z" />
    <glyph glyph-name="imacron" unicode="&#x12b;" horiz-adv-x="450" 
d="M137 971h176v-971h-176v971zM-37 1331h520v-141h-520v141z" />
    <glyph glyph-name="Ibreve" unicode="&#x12c;" horiz-adv-x="497" 
d="M156 0v1434h188v-1434h-188zM500 1821q0 -106 -70 -165t-180 -59t-180 59t-70 165q0 22 2 28h139l-2 -22q0 -45 30.5 -74t80.5 -29t80 29t30 74l-2 22h140q2 -6 2 -28z" />
    <glyph glyph-name="ibreve" unicode="&#x12d;" horiz-adv-x="450" 
d="M137 971h176v-971h-176v971zM475 1358q0 -105 -70 -164t-180 -59t-180 59t-70 164q0 22 2 28h140l-2 -22q0 -45 30 -73.5t80 -28.5t80.5 28.5t30.5 73.5l-2 22h139q2 -6 2 -28z" />
    <glyph glyph-name="Iogonek" unicode="&#x12e;" horiz-adv-x="497" 
d="M156 0v1434h188v-1434h-188zM264 -385q-80 0 -130 48.5t-50 121.5q0 132 139 215h121q-125 -78 -125 -162q0 -35 23.5 -56.5t60.5 -21.5q32 0 70 23l55 -125q-79 -43 -164 -43z" />
    <glyph glyph-name="iogonek" unicode="&#x12f;" horiz-adv-x="450" 
d="M137 971h176v-971h-176v971zM127 1151v207h197v-207h-197zM233 -385q-80 0 -130 48.5t-50 121.5q0 132 140 215h120q-125 -78 -125 -162q0 -35 23.5 -56.5t60.5 -21.5q32 0 70 23l55 -125q-79 -43 -164 -43z" />
    <glyph glyph-name="Idot" unicode="&#x130;" horiz-adv-x="497" 
d="M156 0v1434h188v-1434h-188zM152 1829h196v-205h-196v205z" />
    <glyph glyph-name="dotlessi" unicode="&#x131;" horiz-adv-x="450" 
d="M137 971h176v-971h-176v971z" />
    <glyph glyph-name="IJ" unicode="&#x132;" horiz-adv-x="1722" 
d="M156 0v1434h188v-1434h-188zM1393 1434h188v-955q0 -102 -28 -190t-84.5 -158t-151.5 -110.5t-219 -40.5q-228 0 -363 132.5t-135 342.5q0 142 57 247l179 -67q-48 -85 -48 -191q0 -128 85.5 -207t224.5 -79q147 0 221 90.5t74 265.5v920z" />
    <glyph glyph-name="ij" unicode="&#x133;" horiz-adv-x="901" 
d="M137 971h176v-971h-176v971zM127 1151v207h197v-207h-197zM588 -406v1377h176v-1377h-176zM578 1151v207h196v-207h-196z" />
    <glyph glyph-name="Jcircumflex" unicode="&#x134;" horiz-adv-x="1224" 
d="M895 1434h188v-955q0 -102 -28 -190t-84.5 -158t-151.5 -110.5t-219 -40.5q-228 0 -363 132.5t-135 342.5q0 140 58 247l178 -67q-47 -83 -47 -191q0 -128 85 -207t224 -79q147 0 221 90.5t74 265.5v920zM678 1599v29l248 217h127l247 -217v-29h-194l-117 142l-117 -142
h-194z" />
    <glyph glyph-name="jcircumflex" unicode="&#x135;" horiz-adv-x="450" 
d="M137 -406v1377h176v-1377h-176zM-86 1137v28l248 217h127l248 -217v-28h-195l-117 141l-116 -141h-195z" />
    <glyph glyph-name="Kcommaaccent" unicode="&#x136;" horiz-adv-x="1376" 
d="M774 872l553 -872h-225l-457 733l-301 -319v-414h-188v1434h188v-766l713 766h243zM555 -508l20 96q43 -16 82 -16q33 0 52.5 17t19.5 49q0 61 -76 61h-37v195h213v-248q0 -172 -172 -172q-49 0 -102 18z" />
    <glyph glyph-name="kcommaaccent" unicode="&#x137;" horiz-adv-x="1034" 
d="M586 578l399 -578h-215l-307 446l-150 -157v-289h-176v1434h176v-918l416 455h225zM358 -508l21 96q43 -16 82 -16q33 0 52 17t19 49q0 61 -75 61h-37v195h213v-248q0 -172 -172 -172q-51 0 -103 18z" />
    <glyph glyph-name="kgreenlandic" unicode="&#x138;" horiz-adv-x="956" 
d="M137 0v971h176v-391l351 391h227l-430 -459l448 -512h-225l-371 434v-434h-176z" />
    <glyph glyph-name="Lacute" unicode="&#x139;" horiz-adv-x="1306" 
d="M156 1434h188v-1256h877v-178h-1065v1434zM166 1599l178 273h240v-29l-248 -244h-170z" />
    <glyph glyph-name="lacute" unicode="&#x13a;" horiz-adv-x="450" 
d="M137 0v1434h176v-1434h-176zM141 1599l178 273h240v-29l-248 -244h-170z" />
    <glyph glyph-name="Lcommaaccent" unicode="&#x13b;" horiz-adv-x="1306" 
d="M156 1434h188v-1256h877v-178h-1065v1434zM500 -508l20 96q43 -16 82 -16q33 0 52.5 17t19.5 49q0 61 -76 61h-37v195h213v-248q0 -172 -172 -172q-50 0 -102 18z" />
    <glyph glyph-name="lcommaaccent" unicode="&#x13c;" horiz-adv-x="450" 
d="M137 0v1434h176v-1434h-176zM57 -508l21 96q43 -16 82 -16q33 0 52 17t19 49q0 61 -75 61h-37v195h213v-248q0 -172 -172 -172q-50 0 -103 18z" />
    <glyph glyph-name="Lcaron" unicode="&#x13d;" horiz-adv-x="1306" 
d="M156 1434h188v-1256h877v-178h-1065v1434zM983 1006v106h51q80 0 80 62q0 29 -18.5 45t-51.5 16h-36v199h213v-250q0 -89 -51.5 -133.5t-139.5 -44.5h-47z" />
    <glyph glyph-name="lcaron" unicode="&#x13e;" horiz-adv-x="651" 
d="M137 0v1434h176v-1434h-176zM414 1006v106h51q80 0 80 62q0 29 -18.5 45t-51.5 16h-37v199h213v-250q0 -89 -51 -133.5t-139 -44.5h-47z" />
    <glyph glyph-name="Ldot" unicode="&#x13f;" horiz-adv-x="1228" 
d="M156 1434h188v-1256h877v-178h-1065v1434zM791 825h213v-215h-213v215z" />
    <glyph glyph-name="ldot" unicode="&#x140;" horiz-adv-x="819" 
d="M137 0v1434h176v-1434h-176zM528 825h213v-215h-213v215z" />
    <glyph glyph-name="Lslash" unicode="&#x141;" horiz-adv-x="1306" 
d="M156 1434h188v-1256h877v-178h-1065v1434zM37 522l-70 137l596 312l72 -140z" />
    <glyph glyph-name="lslash" unicode="&#x142;" horiz-adv-x="450" 
d="M137 0v1434h176v-1434h-176zM8 532l-71 138l507 262l70 -137z" />
    <glyph glyph-name="Nacute" unicode="&#x143;" horiz-adv-x="1568" 
d="M344 1303v-1303h-188v1434h323l746 -1303v1303h188v-1434h-326zM700 1599l179 273h239v-29l-248 -244h-170z" />
    <glyph glyph-name="nacute" unicode="&#x144;" horiz-adv-x="1112" 
d="M313 0h-176v971h176v-158q51 85 134.5 131.5t185.5 46.5q157 0 249.5 -95.5t92.5 -264.5v-631h-178v578q0 126 -58 192t-164 66q-113 0 -187.5 -83.5t-74.5 -220.5v-532zM494 1137l178 272h239v-29l-247 -243h-170z" />
    <glyph glyph-name="Ncommaaccent" unicode="&#x145;" horiz-adv-x="1568" 
d="M344 1303v-1303h-188v1434h323l746 -1303v1303h188v-1434h-326zM616 -508l21 96q43 -16 82 -16q33 0 52.5 17t19.5 49q0 61 -76 61h-37v195h213v-248q0 -172 -172 -172q-51 0 -103 18z" />
    <glyph glyph-name="ncommaaccent" unicode="&#x146;" horiz-adv-x="1112" 
d="M313 0h-176v971h176v-158q51 85 134.5 131.5t185.5 46.5q157 0 249.5 -95.5t92.5 -264.5v-631h-178v578q0 126 -58 192t-164 66q-113 0 -187.5 -83.5t-74.5 -220.5v-532zM385 -508l21 96q43 -16 81 -16q33 0 52.5 17t19.5 49q0 61 -76 61h-37v195h213v-248
q0 -172 -172 -172q-49 0 -102 18z" />
    <glyph glyph-name="Ncaron" unicode="&#x147;" horiz-adv-x="1568" 
d="M344 1303v-1303h-188v1434h323l746 -1303v1303h188v-1434h-326zM721 1599l-248 218v28h195l116 -141l117 141h195v-28l-248 -218h-127z" />
    <glyph glyph-name="ncaron" unicode="&#x148;" horiz-adv-x="1112" 
d="M313 0h-176v971h176v-158q51 85 134.5 131.5t185.5 46.5q157 0 249.5 -95.5t92.5 -264.5v-631h-178v578q0 126 -58 192t-164 66q-113 0 -187.5 -83.5t-74.5 -220.5v-532zM518 1137l-248 217v28h195l117 -141l116 141h195v-28l-248 -217h-127z" />
    <glyph glyph-name="Eng" unicode="&#x14a;" horiz-adv-x="1568" 
d="M649 -147l170 69q47 -176 219 -176q91 0 139 54.5t48 158.5v41h-138l-743 1303v-1303h-188v1434h323l746 -1303v1303h188v-1442q0 -199 -95.5 -308.5t-273.5 -109.5q-152 0 -255.5 74.5t-139.5 204.5z" />
    <glyph glyph-name="eng" unicode="&#x14b;" horiz-adv-x="1112" 
d="M446 -225l160 59q7 -47 33.5 -73.5t65.5 -26.5q92 0 92 116v728q0 126 -58.5 192t-165.5 66q-111 0 -185.5 -83.5t-74.5 -217.5v-535h-176v971h176v-158q51 85 134.5 131.5t185.5 46.5q157 0 249.5 -95.5t92.5 -264.5v-766q0 -139 -68 -215t-202 -76q-99 0 -169.5 54
t-89.5 147z" />
    <glyph glyph-name="Omacron" unicode="&#x14c;" horiz-adv-x="1662" 
d="M831 1454q152 3 291 -56t238 -159t157 -237t56 -285q2 -149 -56 -286t-157 -237t-238 -158.5t-291 -55.5q-153 -3 -291.5 55.5t-237 158.5t-155.5 237t-55 286q-2 148 55 285t155.5 237t237 159t291.5 56zM831 158q152 0 275.5 69.5t195.5 197.5t72 292q0 123 -41.5 228
t-114 177t-172.5 113t-215 41q-235 0 -388.5 -156t-153.5 -405q0 -164 72 -292t195 -196.5t275 -68.5zM571 1794h521v-141h-521v141z" />
    <glyph glyph-name="omacron" unicode="&#x14d;" horiz-adv-x="1138" 
d="M78 485q0 218 137 362t354 144q145 0 258 -66.5t174.5 -181.5t61.5 -258q0 -217 -139 -361t-355 -144q-217 0 -354 143.5t-137 361.5zM881 485q0 154 -88 248q-85 98 -224 98q-135 0 -223 -97t-88 -249t88 -249t223 -97q137 0 224.5 96.5t87.5 249.5zM307 1331h520v-141
h-520v141z" />
    <glyph glyph-name="Obreve" unicode="&#x14e;" horiz-adv-x="1662" 
d="M831 1454q152 3 291 -56t238 -159t157 -237t56 -285q2 -149 -56 -286t-157 -237t-238 -158.5t-291 -55.5q-153 -3 -291.5 55.5t-237 158.5t-155.5 237t-55 286q-2 148 55 285t155.5 237t237 159t291.5 56zM831 158q152 0 275.5 69.5t195.5 197.5t72 292q0 123 -41.5 228
t-114 177t-172.5 113t-215 41q-235 0 -388.5 -156t-153.5 -405q0 -164 72 -292t195 -196.5t275 -68.5zM1081 1821q0 -106 -70 -165t-180 -59q-109 0 -179 59t-70 165q0 22 2 28h139l-2 -22q0 -45 30 -74t80 -29t80.5 29t30.5 74l-2 22h139q2 -6 2 -28z" />
    <glyph glyph-name="obreve" unicode="&#x14f;" horiz-adv-x="1138" 
d="M78 485q0 218 137 362t354 144q145 0 258 -66.5t174.5 -181.5t61.5 -258q0 -217 -139 -361t-355 -144q-217 0 -354 143.5t-137 361.5zM881 485q0 154 -88 248q-85 98 -224 98q-135 0 -223 -97t-88 -249t88 -249t223 -97q137 0 224.5 96.5t87.5 249.5zM819 1358
q0 -105 -70 -164t-180 -59t-180 59t-70 164q0 19 3 28h139l-2 -22q0 -45 30 -73.5t80 -28.5t80.5 28.5t30.5 73.5l-2 22h139q2 -6 2 -28z" />
    <glyph glyph-name="Ohungarumlaut" unicode="&#x150;" horiz-adv-x="1662" 
d="M831 1454q152 3 291 -56t238 -159t157 -237t56 -285q2 -149 -56 -286t-157 -237t-238 -158.5t-291 -55.5q-153 -3 -291.5 55.5t-237 158.5t-155.5 237t-55 286q-2 148 55 285t155.5 237t237 159t291.5 56zM831 158q152 0 275.5 69.5t195.5 197.5t72 292q0 123 -41.5 228
t-114 177t-172.5 113t-215 41q-235 0 -388.5 -156t-153.5 -405q0 -164 72 -292t195 -196.5t275 -68.5zM563 1599l178 273h240v-29l-248 -244h-170zM930 1599l178 273h240v-29l-248 -244h-170z" />
    <glyph glyph-name="ohungarumlaut" unicode="&#x151;" horiz-adv-x="1138" 
d="M78 485q0 218 137 362t354 144q145 0 258 -66.5t174.5 -181.5t61.5 -258q0 -217 -139 -361t-355 -144q-217 0 -354 143.5t-137 361.5zM881 485q0 154 -88 248q-85 98 -224 98q-135 0 -223 -97t-88 -249t88 -249t223 -97q137 0 224.5 96.5t87.5 249.5zM301 1137l178 272
h240v-29l-248 -243h-170zM668 1137l178 272h239v-29l-247 -243h-170z" />
    <glyph glyph-name="OE" unicode="&#x152;" horiz-adv-x="2519" 
d="M92 717q-2 148 55 285t155.5 237t237 159t291.5 56q171 0 312.5 -68.5t234.5 -193.5v242h1010v-179h-821v-424h760v-178h-760v-475h841v-178h-1030v244q-202 -264 -547 -264q-153 -3 -291.5 55.5t-237 158.5t-155.5 237t-55 286zM1374 717q0 123 -41.5 228t-114 177
t-172.5 113t-215 41q-235 0 -388.5 -156t-153.5 -405q0 -164 72 -292t195 -196.5t275 -68.5q115 0 215 41t172.5 113t114 177t41.5 228z" />
    <glyph glyph-name="oe" unicode="&#x153;" horiz-adv-x="1871" 
d="M78 483q0 219 137 363.5t354 144.5q129 0 232.5 -57t167.5 -158q63 102 159.5 158.5t217.5 56.5q195 0 313 -112q119 -110 119 -301q0 -39 -13 -119h-702q1 -153 88 -239.5t221 -86.5q220 0 281 219l151 -59q-51 -151 -159.5 -232t-272.5 -81q-272 0 -399 210
q-64 -101 -168 -155.5t-236 -54.5q-218 0 -354.5 142t-136.5 361zM1063 586h536q3 9 3 28q0 103 -73.5 162.5t-185.5 59.5q-113 0 -190 -67.5t-90 -182.5zM881 483q0 156 -88 250q-85 98 -224 98q-135 0 -223 -98t-88 -250q0 -153 87.5 -248.5t223.5 -95.5q137 0 224.5 95.5
t87.5 248.5z" />
    <glyph glyph-name="Racute" unicode="&#x154;" horiz-adv-x="1376" 
d="M1280 0h-231q-25 51 -37 123.5t-13 204.5q-1 150 -70 214t-210 64h-375v-606h-188v1434h655q208 0 332.5 -112t124.5 -278q0 -133 -73.5 -227t-213.5 -141q111 -42 167 -126t60 -224q5 -132 18 -192t54 -105v-29zM344 784h451q129 0 201.5 63t72.5 173q0 112 -72 173.5
t-202 61.5h-451v-471zM530 1599l179 273h239v-29l-248 -244h-170z" />
    <glyph glyph-name="racute" unicode="&#x155;" horiz-adv-x="901" 
d="M137 971h176v-142q32 78 96 120t152 42q117 0 191.5 -76t74.5 -188q0 -59 -12 -109h-172q6 44 6 72q0 68 -41.5 107t-113.5 39q-82 0 -131.5 -60t-49.5 -158v-618h-176v971zM438 1137l178 272h240v-29l-248 -243h-170z" />
    <glyph glyph-name="Rcommaaccent" unicode="&#x156;" horiz-adv-x="1376" 
d="M1280 0h-231q-25 51 -37 123.5t-13 204.5q-1 150 -70 214t-210 64h-375v-606h-188v1434h655q208 0 332.5 -112t124.5 -278q0 -133 -73.5 -227t-213.5 -141q111 -42 167 -126t60 -224q5 -132 18 -192t54 -105v-29zM344 784h451q129 0 201.5 63t72.5 173q0 112 -72 173.5
t-202 61.5h-451v-471zM528 -508l21 96q43 -16 82 -16q33 0 52 17t19 49q0 61 -75 61h-37v195h213v-248q0 -172 -172 -172q-51 0 -103 18z" />
    <glyph glyph-name="rcommaaccent" unicode="&#x157;" horiz-adv-x="901" 
d="M137 971h176v-142q32 78 96 120t152 42q117 0 191.5 -76t74.5 -188q0 -59 -12 -109h-172q6 44 6 72q0 68 -41.5 107t-113.5 39q-82 0 -131.5 -60t-49.5 -158v-618h-176v971zM57 -508l21 96q43 -16 82 -16q33 0 52 17t19 49q0 61 -75 61h-37v195h213v-248
q0 -172 -172 -172q-50 0 -103 18z" />
    <glyph glyph-name="Rcaron" unicode="&#x158;" horiz-adv-x="1376" 
d="M1280 0h-231q-25 51 -37 123.5t-13 204.5q-1 150 -70 214t-210 64h-375v-606h-188v1434h655q208 0 332.5 -112t124.5 -278q0 -133 -73.5 -227t-213.5 -141q111 -42 167 -126t60 -224q5 -132 18 -192t54 -105v-29zM344 784h451q129 0 201.5 63t72.5 173q0 112 -72 173.5
t-202 61.5h-451v-471zM551 1599l-248 218v28h195l116 -141l117 141h195v-28l-248 -218h-127z" />
    <glyph glyph-name="rcaron" unicode="&#x159;" horiz-adv-x="901" 
d="M137 971h176v-142q32 78 96 120t152 42q117 0 191.5 -76t74.5 -188q0 -59 -12 -109h-172q6 44 6 72q0 68 -41.5 107t-113.5 39q-82 0 -131.5 -60t-49.5 -158v-618h-176v971zM463 1137l-248 217v28h195l116 -141l117 141h195v-28l-248 -217h-127z" />
    <glyph glyph-name="Sacute" unicode="&#x15a;" horiz-adv-x="1288" 
d="M631 1276q-123 0 -201 -55t-78 -146q0 -102 94 -163.5t281 -98.5q255 -50 372.5 -147t117.5 -263q0 -185 -152.5 -304t-388.5 -119q-204 0 -373 102q-171 103 -244 336l174 108q43 -178 157.5 -273t287.5 -95q156 0 250 65t94 174q0 99 -81.5 156.5t-278.5 89.5
q-498 86 -498 428q0 161 135 272t348 111q180 0 316.5 -90t193.5 -250l-176 -100q-35 129 -124 195.5t-226 66.5zM563 1599l178 273h240v-29l-248 -244h-170z" />
    <glyph glyph-name="sacute" unicode="&#x15b;" horiz-adv-x="966" 
d="M68 254l145 76q41 -103 110 -149t179 -46q96 0 152.5 38.5t56.5 102.5q0 71 -56.5 110.5t-199.5 59.5q-334 49 -334 279q0 117 98 190q101 76 252 76q257 0 350 -215l-137 -76q-50 148 -213 148q-81 0 -134.5 -34.5t-53.5 -90.5q0 -62 58 -95t202 -53q340 -46 340 -288
q0 -134 -111.5 -220.5t-277.5 -86.5q-161 0 -271.5 73.5t-154.5 200.5zM389 1137l178 272h240v-29l-248 -243h-170z" />
    <glyph glyph-name="Scircumflex" unicode="&#x15c;" horiz-adv-x="1288" 
d="M631 1276q-123 0 -201 -55t-78 -146q0 -102 94 -163.5t281 -98.5q255 -50 372.5 -147t117.5 -263q0 -185 -152.5 -304t-388.5 -119q-204 0 -373 102q-171 103 -244 336l174 108q43 -178 157.5 -273t287.5 -95q156 0 250 65t94 174q0 99 -81.5 156.5t-278.5 89.5
q-498 86 -498 428q0 161 135 272t348 111q180 0 316.5 -90t193.5 -250l-176 -100q-35 129 -124 195.5t-226 66.5zM336 1599v29l248 217h127l247 -217v-29h-194l-117 142l-117 -142h-194z" />
    <glyph glyph-name="scircumflex" unicode="&#x15d;" horiz-adv-x="966" 
d="M68 254l145 76q41 -103 110 -149t179 -46q96 0 152.5 38.5t56.5 102.5q0 71 -56.5 110.5t-199.5 59.5q-334 49 -334 279q0 117 98 190q101 76 252 76q257 0 350 -215l-137 -76q-50 148 -213 148q-81 0 -134.5 -34.5t-53.5 -90.5q0 -62 58 -95t202 -53q340 -46 340 -288
q0 -134 -111.5 -220.5t-277.5 -86.5q-161 0 -271.5 73.5t-154.5 200.5zM162 1137v28l248 217h127l247 -217v-28h-194l-117 141l-117 -141h-194z" />
    <glyph glyph-name="Scedilla" unicode="&#x15e;" horiz-adv-x="1288" 
d="M631 1276q-123 0 -201 -55t-78 -146q0 -102 94 -163.5t281 -98.5q255 -50 372.5 -147t117.5 -263q0 -185 -152.5 -304t-388.5 -119q-204 0 -373 102q-171 103 -244 336l174 108q43 -178 157.5 -273t287.5 -95q156 0 250 65t94 174q0 99 -81.5 156.5t-278.5 89.5
q-498 86 -498 428q0 161 135 272t348 111q180 0 316.5 -90t193.5 -250l-176 -100q-35 129 -124 195.5t-226 66.5zM676 -109q19 21 47.5 34.5t54.5 13.5q70 0 114 -43t44 -115q0 -77 -48 -121.5t-124 -44.5q-71 0 -120.5 35.5t-61.5 101.5l96 25q5 -31 27.5 -50.5t54.5 -19.5
q38 0 60 20.5t22 53.5t-22.5 54.5t-59.5 21.5q-24 0 -45.5 -12t-32.5 -31l-96 18q23 80 43 201h104q-31 -97 -57 -142z" />
    <glyph glyph-name="scedilla" unicode="&#x15f;" horiz-adv-x="966" 
d="M68 254l145 76q41 -103 110 -149t179 -46q96 0 152.5 38.5t56.5 102.5q0 71 -56.5 110.5t-199.5 59.5q-334 49 -334 279q0 117 98 190q101 76 252 76q257 0 350 -215l-137 -76q-50 148 -213 148q-81 0 -134.5 -34.5t-53.5 -90.5q0 -62 58 -95t202 -53q340 -46 340 -288
q0 -134 -111.5 -220.5t-277.5 -86.5q-161 0 -271.5 73.5t-154.5 200.5zM434 -109q19 21 48 34.5t55 13.5q70 0 113.5 -42.5t43.5 -115.5q0 -77 -48 -121.5t-124 -44.5q-71 0 -120.5 35.5t-61.5 101.5l96 25q5 -31 27.5 -50.5t54.5 -19.5q38 0 60 20.5t22 53.5t-22.5 54.5
t-59.5 21.5q-24 0 -45.5 -12t-32.5 -31l-96 18q23 80 43 201h105q-29 -93 -58 -142z" />
    <glyph glyph-name="Scaron" unicode="&#x160;" horiz-adv-x="1288" 
d="M631 1276q-123 0 -201 -55t-78 -146q0 -102 94 -163.5t281 -98.5q255 -50 372.5 -147t117.5 -263q0 -185 -152.5 -304t-388.5 -119q-204 0 -373 102q-171 103 -244 336l174 108q43 -178 157.5 -273t287.5 -95q156 0 250 65t94 174q0 99 -81.5 156.5t-278.5 89.5
q-498 86 -498 428q0 161 135 272t348 111q180 0 316.5 -90t193.5 -250l-176 -100q-35 129 -124 195.5t-226 66.5zM584 1599l-248 218v28h194l117 -141l117 141h194v-28l-247 -218h-127z" />
    <glyph glyph-name="scaron" unicode="&#x161;" horiz-adv-x="966" 
d="M68 254l145 76q41 -103 110 -149t179 -46q96 0 152.5 38.5t56.5 102.5q0 71 -56.5 110.5t-199.5 59.5q-334 49 -334 279q0 117 98 190q101 76 252 76q257 0 350 -215l-137 -76q-50 148 -213 148q-81 0 -134.5 -34.5t-53.5 -90.5q0 -62 58 -95t202 -53q340 -46 340 -288
q0 -134 -111.5 -220.5t-277.5 -86.5q-161 0 -271.5 73.5t-154.5 200.5zM414 1137l-248 217v28h194l117 -141l117 141h194v-28l-247 -217h-127z" />
    <glyph glyph-name="uni0162" unicode="&#x162;" horiz-adv-x="1376" 
d="M1313 1434v-179h-531v-1255h-188v1255h-531v179h1250zM690 -109q19 21 48 34.5t55 13.5q70 0 113.5 -42.5t43.5 -115.5q0 -77 -48 -121.5t-124 -44.5q-71 0 -120.5 35.5t-61.5 101.5l96 25q5 -31 27.5 -50.5t54.5 -19.5q38 0 60 20.5t22 53.5t-22.5 54.5t-59.5 21.5
q-24 0 -45.5 -12t-32.5 -31l-96 18q23 80 43 201h105q-29 -93 -58 -142z" />
    <glyph glyph-name="uni0163" unicode="&#x163;" horiz-adv-x="917" 
d="M240 289v532h-193v150h193v301h178v-301h348v-150h-348v-540q0 -67 37.5 -106.5t95.5 -39.5q62 0 97.5 36.5t47.5 115.5l164 -37q-20 -130 -99 -200t-204 -70q-153 0 -235 81t-82 228zM485 -109q19 21 48 34.5t55 13.5q70 0 113.5 -42.5t43.5 -115.5q0 -77 -48 -121.5
t-124 -44.5q-71 0 -120.5 35.5t-61.5 101.5l96 25q5 -31 27.5 -50.5t54.5 -19.5q38 0 60 20.5t22 53.5t-22.5 54.5t-59.5 21.5q-53 0 -77 -43l-97 18q23 80 43 201h105q-29 -93 -58 -142z" />
    <glyph glyph-name="Tcaron" unicode="&#x164;" horiz-adv-x="1376" 
d="M1313 1434v-179h-531v-1255h-188v1255h-531v179h1250zM625 1599l-248 218v28h194l117 -141l117 141h194v-28l-247 -218h-127z" />
    <glyph glyph-name="tcaron" unicode="&#x165;" horiz-adv-x="917" 
d="M240 289v532h-193v150h193v301h178v-301h348v-150h-348v-540q0 -67 37.5 -106.5t95.5 -39.5q62 0 97.5 36.5t47.5 115.5l164 -37q-20 -130 -99 -200t-204 -70q-153 0 -235 81t-82 228zM524 1075v107h51q80 0 80 61q0 29 -18.5 45.5t-50.5 16.5h-37v198h213v-250
q0 -89 -51.5 -133.5t-139.5 -44.5h-47z" />
    <glyph glyph-name="Tbar" unicode="&#x166;" horiz-adv-x="1376" 
d="M1313 1434v-179h-531v-1255h-188v1255h-531v179h1250zM303 793h770v-154h-770v154z" />
    <glyph glyph-name="tbar" unicode="&#x167;" horiz-adv-x="917" 
d="M240 289v532h-193v150h193v301h178v-301h348v-150h-348v-540q0 -67 37.5 -106.5t95.5 -39.5q62 0 97.5 36.5t47.5 115.5l164 -37q-20 -130 -99 -200t-204 -70q-153 0 -235 81t-82 228zM80 621h625v-144h-625v144z" />
    <glyph glyph-name="Utilde" unicode="&#x168;" horiz-adv-x="1464" 
d="M141 1434h189v-842q0 -206 107 -320t294 -114q190 0 297 114t107 320v842h188v-861q0 -263 -161 -428t-431 -165t-430 165t-160 428v861zM700 1669q-26 24 -44.5 33.5t-43.5 9.5q-30 0 -49.5 -19t-19.5 -51q0 -17 6 -32l-129 16q-4 16 -4 33q0 79 54 130.5t134 51.5
q53 0 86 -14.5t72 -48.5q26 -24 44.5 -33.5t43.5 -9.5q30 0 50 19t20 50q0 16 -7 33l131 -16q5 -20 5 -33q0 -79 -55.5 -130.5t-135.5 -51.5q-53 0 -86 14.5t-72 48.5z" />
    <glyph glyph-name="utilde" unicode="&#x169;" horiz-adv-x="1116" 
d="M803 971h178v-971h-178v164q-51 -87 -132.5 -135.5t-185.5 -48.5q-162 0 -255 95.5t-93 272.5v623h176v-582q0 -126 56 -190t163 -64q118 0 194.5 88t76.5 232v516zM528 1206q-26 24 -44.5 33.5t-43.5 9.5q-30 0 -49.5 -18.5t-19.5 -50.5q0 -18 6 -33l-129 16
q-4 16 -4 33q0 79 54 130.5t134 51.5q53 0 86 -14.5t72 -48.5q26 -24 44.5 -33.5t43.5 -9.5q30 0 50 19t20 50q0 15 -7 33l131 -16q5 -20 5 -33q0 -79 -55.5 -130.5t-135.5 -51.5q-53 0 -86 14.5t-72 48.5z" />
    <glyph glyph-name="Umacron" unicode="&#x16a;" horiz-adv-x="1464" 
d="M141 1434h189v-842q0 -206 107 -320t294 -114q190 0 297 114t107 320v842h188v-861q0 -263 -161 -428t-431 -165t-430 165t-160 428v861zM471 1794h520v-141h-520v141z" />
    <glyph glyph-name="umacron" unicode="&#x16b;" horiz-adv-x="1116" 
d="M803 971h178v-971h-178v164q-51 -87 -132.5 -135.5t-185.5 -48.5q-162 0 -255 95.5t-93 272.5v623h176v-582q0 -126 56 -190t163 -64q118 0 194.5 88t76.5 232v516zM297 1331h520v-141h-520v141z" />
    <glyph glyph-name="Ubreve" unicode="&#x16c;" horiz-adv-x="1464" 
d="M141 1434h189v-842q0 -206 107 -320t294 -114q190 0 297 114t107 320v842h188v-861q0 -263 -161 -428t-431 -165t-430 165t-160 428v861zM981 1821q0 -106 -70 -165t-180 -59t-180 59t-70 165q0 22 2 28h140l-2 -22q0 -45 30 -74t80 -29t80.5 29t30.5 74l-2 22h139
q2 -6 2 -28z" />
    <glyph glyph-name="ubreve" unicode="&#x16d;" horiz-adv-x="1116" 
d="M803 971h178v-971h-178v164q-51 -87 -132.5 -135.5t-185.5 -48.5q-162 0 -255 95.5t-93 272.5v623h176v-582q0 -126 56 -190t163 -64q118 0 194.5 88t76.5 232v516zM809 1358q0 -105 -70 -164t-180 -59t-180 59t-70 164q0 22 2 28h140l-2 -22q0 -45 30 -73.5t80 -28.5
t80.5 28.5t30.5 73.5l-2 22h139q2 -6 2 -28z" />
    <glyph glyph-name="Uring" unicode="&#x16e;" horiz-adv-x="1464" 
d="M141 1434h189v-842q0 -206 107 -320t294 -114q190 0 297 114t107 320v842h188v-861q0 -263 -161 -428t-431 -165t-430 165t-160 428v861zM551 1747q0 75 52.5 128.5t127.5 53.5t128.5 -53.5t53.5 -128.5t-53.5 -127.5t-128.5 -52.5t-127.5 52.5t-52.5 127.5zM811 1747
q0 32 -24 56t-56 24t-56 -24t-24 -56t24 -56t56 -24t56 24t24 56z" />
    <glyph glyph-name="uring" unicode="&#x16f;" horiz-adv-x="1116" 
d="M803 971h178v-971h-178v164q-51 -87 -132.5 -135.5t-185.5 -48.5q-162 0 -255 95.5t-93 272.5v623h176v-582q0 -126 56 -190t163 -64q118 0 194.5 88t76.5 232v516zM379 1284q0 75 52.5 128.5t127.5 53.5t128.5 -53.5t53.5 -128.5t-53.5 -127.5t-128.5 -52.5t-127.5 52.5
t-52.5 127.5zM639 1284q0 32 -24 56t-56 24t-56 -24t-24 -56t24 -56t56 -24t56 24t24 56z" />
    <glyph glyph-name="Uhungarumlaut" unicode="&#x170;" horiz-adv-x="1464" 
d="M141 1434h189v-842q0 -206 107 -320t294 -114q190 0 297 114t107 320v842h188v-861q0 -263 -161 -428t-431 -165t-430 165t-160 428v861zM463 1599l178 273h240v-29l-248 -244h-170zM829 1599l179 273h239v-29l-248 -244h-170z" />
    <glyph glyph-name="uhungarumlaut" unicode="&#x171;" horiz-adv-x="1116" 
d="M803 971h178v-971h-178v164q-51 -87 -132.5 -135.5t-185.5 -48.5q-162 0 -255 95.5t-93 272.5v623h176v-582q0 -126 56 -190t163 -64q118 0 194.5 88t76.5 232v516zM291 1137l178 272h240v-29l-248 -243h-170zM657 1137l179 272h239v-29l-248 -243h-170z" />
    <glyph glyph-name="Uogonek" unicode="&#x172;" horiz-adv-x="1464" 
d="M141 1434h189v-842q0 -206 107 -320t294 -114q190 0 297 114t107 320v842h188v-861q0 -263 -161 -428t-431 -165t-430 165t-160 428v861zM774 -385q-80 0 -130 48.5t-50 121.5q0 132 139 215h121q-125 -78 -125 -162q0 -35 23.5 -56.5t60.5 -21.5q32 0 70 23l55 -125
q-79 -43 -164 -43z" />
    <glyph glyph-name="uogonek" unicode="&#x173;" horiz-adv-x="1116" 
d="M803 971h178v-971h-178v164q-51 -87 -132.5 -135.5t-185.5 -48.5q-162 0 -255 95.5t-93 272.5v623h176v-582q0 -126 56 -190t163 -64q118 0 194.5 88t76.5 232v516zM901 -385q-80 0 -130 48.5t-50 121.5q0 132 139 215h121q-125 -78 -125 -162q0 -35 23.5 -56.5
t60.5 -21.5q32 0 70 23l55 -125q-79 -43 -164 -43z" />
    <glyph glyph-name="Wcircumflex" unicode="&#x174;" horiz-adv-x="2023" 
d="M373 0l-346 1434h198l305 -1309l318 1309h328l317 -1309l305 1309h199l-346 -1434h-316l-323 1313l-326 -1313h-313zM700 1599v29l248 217h127l248 -217v-29h-195l-116 142l-117 -142h-195z" />
    <glyph glyph-name="wcircumflex" unicode="&#x175;" horiz-adv-x="1517" 
d="M209 971l227 -799l219 799h207l219 -799l228 799h174l-289 -971h-219l-215 745l-215 -745h-221l-289 971h174zM449 1137v28l247 217h127l248 -217v-28h-194l-117 141l-117 -141h-194z" />
    <glyph glyph-name="Ycircumflex" unicode="&#x176;" horiz-adv-x="1376" 
d="M254 1434l434 -678l447 678h215l-568 -844v-590h-188v590l-565 844h225zM377 1599v29l248 217h127l247 -217v-29h-194l-117 142l-117 -142h-194z" />
    <glyph glyph-name="ycircumflex" unicode="&#x177;" horiz-adv-x="985" 
d="M770 971h188l-622 -1377h-189l240 531l-371 846h193l272 -639zM170 1137v28l248 217h127l248 -217v-28h-195l-117 141l-116 -141h-195z" />
    <glyph glyph-name="Ydieresis" unicode="&#x178;" horiz-adv-x="1376" 
d="M254 1434l434 -678l447 678h215l-568 -844v-590h-188v590l-565 844h225zM416 1624v203h198v-203h-198zM758 1624v203h198v-203h-198z" />
    <glyph glyph-name="Zacute" unicode="&#x179;" horiz-adv-x="1437" 
d="M106 178l967 1077h-956v179h1200v-179l-969 -1077h979v-178h-1221v178zM627 1599l178 273h239v-29l-247 -244h-170z" />
    <glyph glyph-name="zacute" unicode="&#x17a;" horiz-adv-x="1013" 
d="M918 0h-832v150l600 661h-590v160h811v-150l-600 -661h611v-160zM416 1137l178 272h240v-29l-248 -243h-170z" />
    <glyph glyph-name="Zdotaccent" unicode="&#x17b;" horiz-adv-x="1437" 
d="M106 178l967 1077h-956v179h1200v-179l-969 -1077h979v-178h-1221v178zM612 1829h197v-205h-197v205z" />
    <glyph glyph-name="zdotaccent" unicode="&#x17c;" horiz-adv-x="1013" 
d="M918 0h-832v150l600 661h-590v160h811v-150l-600 -661h611v-160zM401 1151v207h197v-207h-197z" />
    <glyph glyph-name="Zcaron" unicode="&#x17d;" horiz-adv-x="1437" 
d="M106 178l967 1077h-956v179h1200v-179l-969 -1077h979v-178h-1221v178zM647 1599l-248 218v28h195l117 -141l116 141h195v-28l-248 -218h-127z" />
    <glyph glyph-name="zcaron" unicode="&#x17e;" horiz-adv-x="1013" 
d="M918 0h-832v150l600 661h-590v160h811v-150l-600 -661h611v-160zM440 1137l-247 217v28h194l117 -141l117 141h194v-28l-248 -217h-127z" />
    <glyph glyph-name="florin" unicode="&#x192;" horiz-adv-x="976" 
d="M76 141l141 92q12 -44 40.5 -69t66.5 -25q100 0 100 125v551h-242v156h242v147q0 154 87 245t243 91t238.5 -78t82.5 -209q0 -33 -2 -45h-166l2 37q0 69 -41.5 107.5t-113.5 38.5q-154 0 -154 -191v-143h274v-156h-274v-559q0 -128 -69.5 -202t-190.5 -74
q-199 0 -264 161z" />
    <glyph glyph-name="uni01B5" unicode="&#x1b5;" horiz-adv-x="1228" 
d="M348 178h979v-178h-1221v178l412 459h-336v160h480l411 458h-956v179h1200v-179l-412 -458h324v-160h-469z" />
    <glyph glyph-name="uni01B6" unicode="&#x1b6;" horiz-adv-x="1013" 
d="M86 0v150l244 270h-144v143h277l223 248h-590v160h811v-150l-233 -258h135v-143h-266l-236 -260h611v-160h-832z" />
    <glyph glyph-name="Aringacute" unicode="&#x1fa;" horiz-adv-x="1513" 
d="M27 0l600 1434h262l600 -1434h-209l-147 365h-750l-150 -365h-206zM451 537h612l-305 747zM578 1747q0 75 52.5 128.5t127.5 53.5t128.5 -53.5t53.5 -128.5t-53.5 -127.5t-128.5 -52.5t-127.5 52.5t-52.5 127.5zM838 1747q0 32 -24 56t-56 24t-56 -24t-24 -56t24 -56
t56 -24t56 24t24 56zM672 1890l178 273h240v-29l-248 -244h-170z" />
    <glyph glyph-name="aringacute" unicode="&#x1fb;" horiz-adv-x="1054" 
d="M92 276q0 145 99 223.5t262 78.5q104 0 206 -31l89 -25v101q0 104 -66.5 161.5t-177.5 57.5q-104 0 -171.5 -53.5t-86.5 -147.5l-160 45q30 141 140 223t278 82q197 0 305.5 -101t108.5 -282v-608h-170v154q-37 -79 -127.5 -126.5t-206.5 -47.5q-136 0 -230 79
q-92 83 -92 217zM748 362v21l-91 27q-102 30 -180 30q-95 0 -149 -39.5t-54 -113.5q0 -69 52 -110.5t147 -41.5q123 0 199 61.5t76 165.5zM324 1284q0 75 52.5 128.5t127.5 53.5t128.5 -53.5t53.5 -128.5t-53.5 -127.5t-128.5 -52.5t-127.5 52.5t-52.5 127.5zM584 1284
q0 32 -24 56t-56 24t-56 -24t-24 -56t24 -56t56 -24t56 24t24 56zM420 1415l178 273h240v-29l-248 -244h-170z" />
    <glyph glyph-name="AEacute" unicode="&#x1fc;" horiz-adv-x="1939" 
d="M1073 178h756v-178h-944v365h-461l-188 -365h-209l743 1434h1038v-179h-735v-424h674v-178h-674v-475zM885 537v720l-373 -720h373zM1198 1599l178 273h240v-29l-248 -244h-170z" />
    <glyph glyph-name="aeacute" unicode="&#x1fd;" horiz-adv-x="1728" 
d="M92 283q0 147 96.5 225t264.5 78h286v37q0 105 -64.5 162t-178.5 57q-103 0 -170 -50t-86 -141l-154 43q32 142 139 219.5t271 77.5q126 0 217 -44.5t139 -127.5q58 80 150 126t200 46q193 0 311 -112q121 -112 121 -301q0 -46 -12 -119h-702q1 -154 87.5 -240t221.5 -86
q219 0 280 219l152 -59q-51 -151 -159.5 -232t-272.5 -81q-137 0 -243 61t-157 170q-123 -231 -405 -231q-148 0 -240 86t-92 217zM918 586h538q2 6 2 28q0 102 -73.5 162t-186.5 60t-190 -67.5t-90 -182.5zM739 383v68h-252q-99 0 -158 -43.5t-59 -120.5q0 -73 51 -112.5
t142 -39.5q125 0 200.5 66.5t75.5 181.5zM770 1137l178 272h240v-29l-248 -243h-170z" />
    <glyph glyph-name="Scommaaccent" unicode="&#x218;" horiz-adv-x="1288" 
d="M631 1276q-123 0 -201 -55t-78 -146q0 -102 94 -163.5t281 -98.5q255 -50 372.5 -147t117.5 -263q0 -185 -152.5 -304t-388.5 -119q-204 0 -373 102q-171 103 -244 336l174 108q43 -178 157.5 -273t287.5 -95q156 0 250 65t94 174q0 99 -81.5 156.5t-278.5 89.5
q-498 86 -498 428q0 161 135 272t348 111q180 0 316.5 -90t193.5 -250l-176 -100q-35 129 -124 195.5t-226 66.5zM506 -508l20 96q43 -16 82 -16q33 0 52.5 17t19.5 49q0 61 -76 61h-37v195h213v-248q0 -172 -172 -172q-50 0 -102 18z" />
    <glyph glyph-name="scommaaccent" unicode="&#x219;" horiz-adv-x="966" 
d="M68 254l145 76q41 -103 110 -149t179 -46q96 0 152.5 38.5t56.5 102.5q0 71 -56.5 110.5t-199.5 59.5q-334 49 -334 279q0 117 98 190q101 76 252 76q257 0 350 -215l-137 -76q-50 148 -213 148q-81 0 -134.5 -34.5t-53.5 -90.5q0 -62 58 -95t202 -53q340 -46 340 -288
q0 -134 -111.5 -220.5t-277.5 -86.5q-161 0 -271.5 73.5t-154.5 200.5zM326 -508l20 96q43 -16 82 -16q33 0 52.5 17t19.5 49q0 61 -76 61h-37v195h213v-248q0 -172 -172 -172q-50 0 -102 18z" />
    <glyph glyph-name="uni021A" unicode="&#x21a;" horiz-adv-x="1376" 
d="M1313 1434v-179h-531v-1255h-188v1255h-531v179h1250zM520 -508l21 96q43 -16 82 -16q33 0 52 17t19 49q0 61 -76 61h-36v195h213v-248q0 -172 -172 -172q-51 0 -103 18z" />
    <glyph glyph-name="uni021B" unicode="&#x21b;" horiz-adv-x="917" 
d="M240 289v532h-193v150h193v301h178v-301h348v-150h-348v-540q0 -67 37.5 -106.5t95.5 -39.5q62 0 97.5 36.5t47.5 115.5l164 -37q-20 -130 -99 -200t-204 -70q-153 0 -235 81t-82 228zM383 -508l20 96q43 -16 82 -16q33 0 52.5 17t19.5 49q0 61 -76 61h-37v195h213v-248
q0 -172 -172 -172q-49 0 -102 18z" />
    <glyph glyph-name="uni0237" unicode="&#x237;" horiz-adv-x="450" 
d="M137 -406v1377h176v-1377h-176z" />
    <glyph glyph-name="circumflex" unicode="&#x2c6;" horiz-adv-x="860" 
d="M119 1137v28l248 217h127l247 -217v-28h-194l-117 141l-117 -141h-194z" />
    <glyph glyph-name="caron" unicode="&#x2c7;" horiz-adv-x="851" 
d="M367 1137l-248 217v28h194l117 -141l117 141h194v-28l-247 -217h-127z" />
    <glyph glyph-name="uni02C9" unicode="&#x2c9;" horiz-adv-x="782" 
d="M131 1331h520v-141h-520v141z" />
    <glyph glyph-name="breve" unicode="&#x2d8;" horiz-adv-x="733" 
d="M616 1358q0 -105 -69.5 -164t-179.5 -59t-180 59t-70 164q0 22 2 28h139l-2 -22q0 -45 30.5 -73.5t80.5 -28.5t80 28.5t30 73.5l-2 22h139q2 -6 2 -28z" />
    <glyph glyph-name="dotaccent" unicode="&#x2d9;" horiz-adv-x="413" 
d="M109 1151v207h196v-207h-196z" />
    <glyph glyph-name="ring" unicode="&#x2da;" horiz-adv-x="598" 
d="M299 1454q72 0 121 -49t49 -121q0 -69 -50.5 -118.5t-119.5 -49.5t-118.5 49.5t-49.5 118.5t49.5 119.5t118.5 50.5zM299 1214q31 0 51.5 20.5t20.5 49.5q0 31 -20.5 51.5t-51.5 20.5q-29 0 -49.5 -20.5t-20.5 -51.5q0 -29 20.5 -49.5t49.5 -20.5z" />
    <glyph glyph-name="ogonek" unicode="&#x2db;" horiz-adv-x="649" 
d="M328 -348q-79 0 -130 47t-51 117q0 125 140 215h116q-118 -75 -118 -156q0 -36 22.5 -57t59.5 -21q29 0 67 23l58 -125q-44 -25 -79 -34t-85 -9z" />
    <glyph glyph-name="tilde" unicode="&#x2dc;" horiz-adv-x="858" 
d="M395 1208q-27 25 -43 34t-39 9q-31 0 -52 -21t-21 -56q0 -9 4 -29l-127 16q-1 8 -2 15.5t-1.5 11t-0.5 4.5q0 80 57.5 133t134.5 53q52 0 84.5 -14.5t67.5 -48.5q25 -25 43.5 -35t46.5 -10q31 0 50 19t19 54q0 1 -4 33l131 -18q2 -6 2 -31q0 -79 -55 -131.5t-135 -52.5
q-57 0 -91.5 15.5t-68.5 49.5z" />
    <glyph glyph-name="hungarumlaut" unicode="&#x2dd;" horiz-adv-x="980" 
d="M98 1137l178 272h240v-29l-248 -243h-170zM465 1137l178 272h240v-29l-248 -243h-170z" />
    <glyph glyph-name="gravecomb" unicode="&#x300;" 
d="M-293 1137l-248 243v29h240l178 -272h-170z" />
    <glyph glyph-name="acutecomb" unicode="&#x301;" 
d="M-541 1137l179 272h239v-29l-248 -243h-170z" />
    <glyph glyph-name="uni0302" unicode="&#x302;" 
d="M-741 1137v28l247 217h127l248 -217v-28h-194l-117 141l-117 -141h-194z" />
    <glyph glyph-name="tildecomb" unicode="&#x303;" 
d="M-463 1206q-26 24 -44.5 33.5t-43.5 9.5q-30 0 -50 -19t-20 -50q0 -16 7 -33l-129 16q-5 20 -5 33q0 79 54.5 130.5t134.5 51.5q53 0 86 -14.5t72 -48.5q26 -24 44.5 -33.5t43.5 -9.5q30 0 49.5 18.5t19.5 50.5q0 18 -6 33l131 -16q4 -16 4 -33q0 -79 -55 -130.5
t-135 -51.5q-53 0 -86 14.5t-72 48.5z" />
    <glyph glyph-name="uni0304" unicode="&#x304;" 
d="M-649 1331h520v-141h-520v141z" />
    <glyph glyph-name="uni0306" unicode="&#x306;" 
d="M-117 1358q0 -105 -70 -164t-180 -59t-179.5 59t-69.5 164q0 22 2 28h139l-2 -22q0 -45 30 -73.5t80 -28.5t80.5 28.5t30.5 73.5l-2 22h139q2 -6 2 -28z" />
    <glyph glyph-name="uni0307" unicode="&#x307;" 
d="M-305 1151v207h196v-207h-196z" />
    <glyph glyph-name="uni0308" unicode="&#x308;" 
d="M-623 1161v203h199v-203h-199zM-281 1161v203h199v-203h-199z" />
    <glyph glyph-name="uni030A" unicode="&#x30a;" 
d="M-473 1284q0 75 52.5 128.5t127.5 53.5t128.5 -53.5t53.5 -128.5t-53.5 -127.5t-128.5 -52.5t-127.5 52.5t-52.5 127.5zM-213 1284q0 32 -24 56t-56 24t-56 -24t-24 -56t24 -56t56 -24t56 24t24 56z" />
    <glyph glyph-name="uni030B" unicode="&#x30b;" 
d="M-885 1137l178 272h240v-29l-248 -243h-170zM-518 1137l178 272h240v-29l-248 -243h-170z" />
    <glyph glyph-name="uni030C" unicode="&#x30c;" 
d="M-485 1137l-248 217v28h194l117 -141l117 141h194v-28l-247 -217h-127z" />
    <glyph glyph-name="uni0312" unicode="&#x312;" 
d="M-162 1110h-215v272q0 172 193 172h65v-106h-71q-37 0 -58.5 -16t-21.5 -46q0 -61 71 -61h37v-215z" />
    <glyph glyph-name="uni0326" unicode="&#x326;" 
d="M-397 -508l20 96q43 -16 82 -16q33 0 52.5 17t19.5 49q0 61 -76 61h-37v195h213v-248q0 -172 -172 -172q-50 0 -102 18z" />
    <glyph glyph-name="uni0327" unicode="&#x327;" 
d="M-373 -109q19 21 48 34.5t55 13.5q70 0 113.5 -42.5t43.5 -115.5q0 -77 -48 -121.5t-124 -44.5q-71 0 -120.5 35.5t-61.5 101.5l96 25q5 -31 27.5 -50.5t54.5 -19.5q38 0 60 20.5t22 53.5t-22.5 54.5t-59.5 21.5q-24 0 -45.5 -12t-32.5 -31l-96 18q23 80 43 201h105
q-29 -93 -58 -142z" />
    <glyph glyph-name="uni0328" unicode="&#x328;" 
d="M-322 -354q-80 0 -130 48.5t-50 121.5q0 132 140 215h120q-125 -78 -125 -162q0 -35 23.5 -56.5t60.5 -21.5q32 0 70 23l55 -125q-79 -43 -164 -43z" />
    <glyph glyph-name="uni0335" unicode="&#x335;" 
d="M-727 760h625v-144h-625v144z" />
    <glyph glyph-name="uni0336" unicode="&#x336;" 
d="M-1640 637v160h1517v-160h-1517z" />
    <glyph glyph-name="uni0337" unicode="&#x337;" 
d="M-664 537l-71 137l508 262l69 -137z" />
    <glyph glyph-name="uni0338" unicode="&#x338;" 
d="M-774 -113l-152 56l420 1140l150 -55z" />
    <glyph glyph-name="uni037E" unicode="&#x37e;" horiz-adv-x="483" 
d="M135 698v215h213v-215h-213zM68 -211l18 98q38 -18 80 -18q80 0 80 68q0 63 -74 63h-37v215h213v-268q0 -176 -180 -176q-54 0 -100 18z" />
    <glyph glyph-name="tonos" unicode="&#x384;" horiz-adv-x="606" 
d="M150 1137l75 272h232v-29l-146 -243h-161z" />
    <glyph glyph-name="dieresistonos" unicode="&#x385;" horiz-adv-x="835" 
d="M301 1126l35 273h215v-29l-105 -244h-145zM68 1161v203h200v-203h-200zM584 1161v203h198v-203h-198z" />
    <glyph glyph-name="Alphatonos" unicode="&#x386;" horiz-adv-x="1513" 
d="M27 0l600 1434h262l600 -1434h-209l-147 365h-750l-150 -365h-206zM451 537h612l-305 747zM90 1161l76 273h231v-29l-145 -244h-162z" />
    <glyph glyph-name="anoteleia" unicode="&#x387;" horiz-adv-x="483" 
d="M135 825h213v-215h-213v215z" />
    <glyph glyph-name="Epsilontonos" unicode="&#x388;" horiz-adv-x="1296" 
d="M156 1434h1009v-179h-821v-424h760v-178h-760v-475h842v-178h-1030v1434zM-276 1161l75 273h232v-29l-146 -244h-161z" />
    <glyph glyph-name="Etatonos" unicode="&#x389;" horiz-adv-x="1509" 
d="M1165 621h-821v-621h-188v1434h188v-641h821v641h189v-1434h-189v621zM-276 1161l75 273h232v-29l-146 -244h-161z" />
    <glyph glyph-name="Iotatonos" unicode="&#x38a;" horiz-adv-x="497" 
d="M156 0v1434h188v-1434h-188zM-276 1161l75 273h232v-29l-146 -244h-161z" />
    <glyph glyph-name="Omicrontonos" unicode="&#x38c;" horiz-adv-x="1662" 
d="M831 1454q152 3 291 -56t238 -159t157 -237t56 -285q2 -149 -56 -286t-157 -237t-238 -158.5t-291 -55.5q-153 -3 -291.5 55.5t-237 158.5t-155.5 237t-55 286q-2 148 55 285t155.5 237t237 159t291.5 56zM831 158q152 0 275.5 69.5t195.5 197.5t72 292q0 123 -41.5 228
t-114 177t-172.5 113t-215 41q-235 0 -388.5 -156t-153.5 -405q0 -164 72 -292t195 -196.5t275 -68.5zM-90 1161l76 273h231v-29l-145 -244h-162z" />
    <glyph glyph-name="Upsilontonos" unicode="&#x38e;" horiz-adv-x="1376" 
d="M254 1434l434 -678l447 678h215l-568 -844v-590h-188v590l-565 844h225zM-340 1161l76 273h231v-29l-145 -244h-162z" />
    <glyph glyph-name="Omegatonos" unicode="&#x38f;" horiz-adv-x="1591" 
d="M1499 774q0 -192 -96 -350q-94 -154 -236 -252h279v-172h-557v162q165 85 291 241q125 155 125 357q0 223 -145 369.5t-365 146.5q-219 0 -364.5 -147t-145.5 -369q0 -202 125 -357q126 -156 292 -241v-162h-557v172h277q-142 98 -236 252q-94 155 -94 350
q-2 141 52 267.5t147.5 218t225 144t278.5 50.5q150 2 282 -50.5t225 -144t145.5 -218t51.5 -267.5zM-115 1161l76 273h232v-29l-146 -244h-162z" />
    <glyph glyph-name="iotadieresistonos" unicode="&#x390;" horiz-adv-x="671" 
d="M137 279v692h176v-707q0 -61 29.5 -93t81.5 -32q79 0 100 80l140 -88q-29 -72 -92 -111.5t-148 -39.5q-141 0 -214 78t-73 221zM100 1126l35 273h215v-29l-104 -244h-146zM-133 1161v203h201v-203h-201zM383 1161v203h199v-203h-199z" />
    <glyph glyph-name="Alpha" unicode="&#x391;" horiz-adv-x="1513" 
d="M27 0l600 1434h262l600 -1434h-209l-147 365h-750l-150 -365h-206zM451 537h612l-305 747z" />
    <glyph glyph-name="Beta" unicode="&#x392;" horiz-adv-x="1409" 
d="M156 0v1434h649q201 0 328 -107t127 -266q0 -105 -58.5 -191t-157.5 -131q128 -42 197.5 -131t69.5 -221q0 -165 -133 -276t-330 -111h-692zM344 821h469q122 0 191 58.5t69 162.5q0 97 -74 155t-186 58h-469v-434zM344 178h498q120 0 196 64.5t76 169.5t-75.5 173
t-196.5 68h-498v-475z" />
    <glyph glyph-name="Gamma" unicode="&#x393;" horiz-adv-x="1255" 
d="M1194 1255h-850v-1255h-188v1434h1038v-179z" />
    <glyph glyph-name="uni0394" unicode="&#x394;" horiz-adv-x="1513" 
d="M27 0l600 1434h262l600 -1434h-1462zM305 172h905l-452 1114z" />
    <glyph glyph-name="Epsilon" unicode="&#x395;" horiz-adv-x="1296" 
d="M156 1434h1009v-179h-821v-424h760v-178h-760v-475h842v-178h-1030v1434z" />
    <glyph glyph-name="Zeta" unicode="&#x396;" horiz-adv-x="1437" 
d="M106 178l967 1077h-956v179h1200v-179l-969 -1077h979v-178h-1221v178z" />
    <glyph glyph-name="Eta" unicode="&#x397;" horiz-adv-x="1509" 
d="M1165 621h-821v-621h-188v1434h188v-641h821v641h189v-1434h-189v621z" />
    <glyph glyph-name="Theta" unicode="&#x398;" horiz-adv-x="1662" 
d="M831 1454q152 3 291 -56t238 -159t157 -237t56 -285q2 -149 -56 -286t-157 -237t-238 -158.5t-291 -55.5q-153 -3 -291.5 55.5t-237 158.5t-155.5 237t-55 286q-2 148 55 285t155.5 237t237 159t291.5 56zM831 158q152 0 275.5 69.5t195.5 197.5t72 292q0 123 -41.5 228
t-114 177t-172.5 113t-215 41q-235 0 -388.5 -156t-153.5 -405q0 -164 72 -292t195 -196.5t275 -68.5zM571 639v156h521v-156h-521z" />
    <glyph glyph-name="Iota" unicode="&#x399;" horiz-adv-x="497" 
d="M156 0v1434h188v-1434h-188z" />
    <glyph glyph-name="Kappa" unicode="&#x39a;" horiz-adv-x="1376" 
d="M774 872l553 -872h-225l-457 733l-301 -319v-414h-188v1434h188v-766l713 766h243z" />
    <glyph glyph-name="Lambda" unicode="&#x39b;" horiz-adv-x="1513" 
d="M27 0l600 1434h262l600 -1434h-209l-522 1286l-525 -1286h-206z" />
    <glyph glyph-name="Mu" unicode="&#x39c;" horiz-adv-x="1929" 
d="M1776 0h-189v1333l-479 -1333h-287l-477 1333v-1333h-188v1434h348l461 -1293l460 1293h351v-1434z" />
    <glyph glyph-name="Nu" unicode="&#x39d;" horiz-adv-x="1568" 
d="M344 1303v-1303h-188v1434h323l746 -1303v1303h188v-1434h-326z" />
    <glyph glyph-name="Xi" unicode="&#x39e;" horiz-adv-x="1384" 
d="M1264 1255h-1141v179h1141v-179zM1018 641h-649v172h649v-172zM113 178h1161v-178h-1161v178z" />
    <glyph glyph-name="Omicron" unicode="&#x39f;" horiz-adv-x="1662" 
d="M831 1454q152 3 291 -56t238 -159t157 -237t56 -285q2 -149 -56 -286t-157 -237t-238 -158.5t-291 -55.5q-153 -3 -291.5 55.5t-237 158.5t-155.5 237t-55 286q-2 148 55 285t155.5 237t237 159t291.5 56zM831 158q152 0 275.5 69.5t195.5 197.5t72 292q0 123 -41.5 228
t-114 177t-172.5 113t-215 41q-235 0 -388.5 -156t-153.5 -405q0 -164 72 -292t195 -196.5t275 -68.5z" />
    <glyph glyph-name="Pi" unicode="&#x3a0;" horiz-adv-x="1509" 
d="M1165 1262h-821v-1262h-188v1434h1198v-1434h-189v1262z" />
    <glyph glyph-name="Rho" unicode="&#x3a1;" horiz-adv-x="1347" 
d="M344 590v-590h-188v1434h632q216 0 340.5 -120.5t124.5 -301.5q0 -85 -32.5 -161.5t-91 -134.5t-147 -92t-194.5 -34h-444zM344 768h428q130 0 206.5 64.5t76.5 179.5t-76.5 179t-206.5 64h-428v-487z" />
    <glyph glyph-name="Sigma" unicode="&#x3a3;" horiz-adv-x="1335" 
d="M850 801v-168l-518 -455h893v-178h-1119v215l580 502l-580 502v215h1078v-179h-852z" />
    <glyph glyph-name="Tau" unicode="&#x3a4;" horiz-adv-x="1376" 
d="M1313 1434v-179h-531v-1255h-188v1255h-531v179h1250z" />
    <glyph glyph-name="Upsilon" unicode="&#x3a5;" horiz-adv-x="1376" 
d="M254 1434l434 -678l447 678h215l-568 -844v-590h-188v590l-565 844h225z" />
    <glyph glyph-name="Phi" unicode="&#x3a6;" horiz-adv-x="1673" 
d="M741 0v164h-112q-233 0 -385 158.5t-152 394.5q0 151 68 277t192 201t277 75h112v164h189v-164h112q153 0 277.5 -75t193 -201.5t68.5 -276.5q0 -155 -68.5 -281.5t-192 -199t-278.5 -72.5h-112v-164h-189zM647 342h94v750h-94q-160 0 -263 -107t-103 -268
q0 -160 103 -267.5t263 -107.5zM930 342h96q160 0 263.5 107.5t103.5 267.5q0 161 -103.5 268t-263.5 107h-96v-750z" />
    <glyph glyph-name="Chi" unicode="&#x3a7;" horiz-adv-x="1380" 
d="M37 0l543 778l-461 656h229l342 -516l350 516h222l-461 -656l542 -778h-223l-430 631l-430 -631h-223z" />
    <glyph glyph-name="Psi" unicode="&#x3a8;" horiz-adv-x="1644" 
d="M1315 1434h188v-349q0 -306 -154.5 -489.5t-433.5 -212.5v-383h-188v383q-278 29 -432 212.5t-154 489.5v349h189v-357q0 -225 103 -359.5t294 -160.5v877h188v-877q193 26 296.5 160.5t103.5 359.5v357z" />
    <glyph glyph-name="uni03A9" unicode="&#x3a9;" horiz-adv-x="1591" 
d="M1499 774q0 -192 -96 -350q-94 -154 -236 -252h279v-172h-557v162q165 85 291 241q125 155 125 357q0 223 -145 369.5t-365 146.5q-219 0 -364.5 -147t-145.5 -369q0 -202 125 -357q126 -156 292 -241v-162h-557v172h277q-142 98 -236 252q-94 155 -94 350
q-2 141 52 267.5t147.5 218t225 144t278.5 50.5q150 2 282 -50.5t225 -144t145.5 -218t51.5 -267.5z" />
    <glyph glyph-name="Iotadieresis" unicode="&#x3aa;" horiz-adv-x="497" 
d="M156 0v1434h188v-1434h-188zM-20 1624v203h198v-203h-198zM322 1624v203h198v-203h-198z" />
    <glyph glyph-name="Upsilondieresis" unicode="&#x3ab;" horiz-adv-x="1376" 
d="M254 1434l434 -678l447 678h215l-568 -844v-590h-188v590l-565 844h225zM408 1624v203h198v-203h-198zM750 1624v203h198v-203h-198z" />
    <glyph glyph-name="alphatonos" unicode="&#x3ac;" horiz-adv-x="1267" 
d="M78 483q0 230 120 369t296 139q107 0 183 -46t114 -126v152h176v-738q0 -44 19.5 -67t55.5 -23q57 0 78 72l140 -74q-23 -74 -84 -117.5t-140 -43.5q-93 0 -154 52t-73 142q-37 -91 -115 -142.5t-196 -51.5q-176 0 -298 137.5t-122 365.5zM793 489q0 162 -75.5 252
t-195.5 90q-116 0 -192 -92.5t-76 -253.5q0 -163 74.5 -254.5t193.5 -91.5q120 0 195.5 92t75.5 258zM539 1137l75 272h232v-29l-146 -243h-161z" />
    <glyph glyph-name="epsilontonos" unicode="&#x3ad;" horiz-adv-x="925" 
d="M82 272q0 178 190 222q-76 21 -122 80.5t-46 142.5q0 126 95 200t247 74q130 0 223.5 -66t137.5 -188l-152 -75q-50 176 -209 176q-78 0 -124 -33.5t-46 -97.5t44 -101t112 -37h68v-155h-88q-73 0 -115.5 -33t-42.5 -92q0 -72 54 -111t147 -39q107 0 169.5 58.5
t80.5 162.5l153 -69q-25 -138 -130.5 -224.5t-258.5 -86.5q-163 0 -275 82t-112 210zM375 1137l76 272h231v-29l-145 -243h-162z" />
    <glyph glyph-name="etatonos" unicode="&#x3ae;" horiz-adv-x="1112" 
d="M797 -406v984q0 125 -60 191.5t-166 66.5q-112 0 -185 -81.5t-73 -215.5v-539h-176v971h176v-154q114 174 320 174q157 0 249.5 -95.5t92.5 -264.5v-1037h-178zM498 1137l75 272h232v-29l-146 -243h-161z" />
    <glyph glyph-name="iotatonos" unicode="&#x3af;" horiz-adv-x="671" 
d="M137 279v692h176v-707q0 -61 29.5 -93t81.5 -32q79 0 100 80l140 -88q-29 -72 -92 -111.5t-148 -39.5q-141 0 -214 78t-73 221zM145 1137l76 272h232v-29l-146 -243h-162z" />
    <glyph glyph-name="upsilondieresistonos" unicode="&#x3b0;" horiz-adv-x="1101" 
d="M137 401v570h176v-576q0 -126 62 -191t176 -65q111 0 174 66.5t63 189.5v576h177v-570q0 -195 -111.5 -308t-302.5 -113t-302.5 113t-111.5 308zM426 1126l35 273h215v-29l-105 -244h-145zM193 1161v203h200v-203h-200zM709 1161v203h198v-203h-198z" />
    <glyph glyph-name="alpha" unicode="&#x3b1;" horiz-adv-x="1267" 
d="M78 483q0 230 120 369t296 139q107 0 183 -46t114 -126v152h176v-738q0 -44 19.5 -67t55.5 -23q57 0 78 72l140 -74q-23 -74 -84 -117.5t-140 -43.5q-93 0 -154 52t-73 142q-37 -91 -115 -142.5t-196 -51.5q-176 0 -298 137.5t-122 365.5zM793 489q0 162 -75.5 252
t-195.5 90q-116 0 -192 -92.5t-76 -253.5q0 -163 74.5 -254.5t193.5 -91.5q120 0 195.5 92t75.5 258z" />
    <glyph glyph-name="beta" unicode="&#x3b2;" horiz-adv-x="1118" 
d="M137 -406v1477q0 176 102.5 279.5t270.5 103.5q162 0 257 -88t95 -231q0 -105 -52 -184.5t-134 -112.5q153 -28 246.5 -133.5t93.5 -278.5q0 -200 -114.5 -323t-295.5 -123q-90 0 -170 34.5t-123 96.5v-517h-176zM840 426q0 150 -108 236t-257 86h-41v153h41q99 2 159 60
t60 157q0 81 -51 130.5t-131 49.5q-93 0 -146 -60t-53 -169v-637q0 -132 77.5 -211.5t197.5 -79.5q115 0 183.5 74t68.5 211z" />
    <glyph glyph-name="gamma" unicode="&#x3b3;" horiz-adv-x="1083" 
d="M455 -406v551l-416 826h188l316 -660l313 660h191l-416 -826v-551h-176z" />
    <glyph glyph-name="delta" unicode="&#x3b4;" horiz-adv-x="1130" 
d="M78 477q0 172 80 281q78 109 188 147q-99 19 -159 86.5t-60 163.5q0 132 121 215.5t297 83.5q244 0 409 -151l-92 -136q-133 127 -311 127q-108 0 -176 -42.5t-68 -114.5q0 -75 65.5 -116.5t192.5 -41.5q114 0 207.5 -39t154 -106.5t93.5 -156t33 -188.5
q0 -223 -135 -366t-353 -143q-143 0 -254.5 65.5t-172 178.5t-60.5 253zM872 485q0 151 -85.5 244.5t-221.5 93.5t-221.5 -93.5t-85.5 -244.5q0 -153 86 -249.5t221 -96.5t221 96.5t86 249.5z" />
    <glyph glyph-name="epsilon" unicode="&#x3b5;" horiz-adv-x="925" 
d="M82 272q0 178 190 222q-76 21 -122 80.5t-46 142.5q0 126 95 200t247 74q130 0 223.5 -66t137.5 -188l-152 -75q-50 176 -209 176q-78 0 -124 -33.5t-46 -97.5t44 -101t112 -37h68v-155h-88q-73 0 -115.5 -33t-42.5 -92q0 -72 54 -111t147 -39q107 0 169.5 58.5
t80.5 162.5l153 -69q-25 -138 -130.5 -224.5t-258.5 -86.5q-163 0 -275 82t-112 210z" />
    <glyph glyph-name="zeta" unicode="&#x3b6;" horiz-adv-x="1011" 
d="M872 -426l-131 90q82 70 82 160q0 71 -51.5 113.5t-153.5 42.5q-111 0 -209 36.5t-171.5 105t-116.5 174t-43 234.5q-1 116 35 221.5t95.5 185.5t140.5 147.5t165.5 113t175.5 76.5h-586v160h869v-160q-369 -133 -546 -308.5t-177 -424.5q0 -201 109 -303.5t298 -102.5
q159 0 248.5 -79t89.5 -220q0 -154 -123 -262z" />
    <glyph glyph-name="eta" unicode="&#x3b7;" horiz-adv-x="1112" 
d="M797 -406v984q0 125 -60 191.5t-166 66.5q-112 0 -185 -81.5t-73 -215.5v-539h-176v971h176v-154q114 174 320 174q157 0 249.5 -95.5t92.5 -264.5v-1037h-178z" />
    <glyph glyph-name="theta" unicode="&#x3b8;" horiz-adv-x="1144" 
d="M78 717q0 343 130.5 540t362.5 197q234 0 365 -197t131 -540q0 -348 -129.5 -542.5t-366.5 -194.5q-236 0 -364.5 194.5t-128.5 542.5zM260 795h625q-8 233 -89 366t-225 133t-223.5 -133t-87.5 -366zM885 639h-625q8 -241 85 -370.5t226 -129.5t227.5 130.5t86.5 369.5z
" />
    <glyph glyph-name="iota" unicode="&#x3b9;" horiz-adv-x="671" 
d="M137 279v692h176v-707q0 -61 29.5 -93t81.5 -32q79 0 100 80l140 -88q-29 -72 -92 -111.5t-148 -39.5q-141 0 -214 78t-73 221z" />
    <glyph glyph-name="kappa" unicode="&#x3ba;" horiz-adv-x="956" 
d="M137 0v971h176v-391l351 391h227l-430 -459l448 -512h-225l-371 434v-434h-176z" />
    <glyph glyph-name="lambda" unicode="&#x3bb;" horiz-adv-x="1024" 
d="M997 0h-188l-291 776l-299 -776h-188l403 1001l-61 164q-44 111 -127 111t-117 -82l-125 86q32 73 98.5 113.5t151.5 40.5q104 0 172 -51.5t109 -161.5z" />
    <glyph glyph-name="uni03BC" unicode="&#x3bc;" horiz-adv-x="1116" 
d="M137 -406v1377h176v-582q0 -254 232 -254q111 0 184.5 87.5t73.5 232.5v516h178v-971h-178v164q-43 -87 -118.5 -135.5t-172.5 -48.5q-134 0 -199 83v-469h-176z" />
    <glyph glyph-name="nu" unicode="&#x3bd;" horiz-adv-x="1067" 
d="M225 971l310 -799l307 799h188l-389 -971h-215l-387 971h186z" />
    <glyph glyph-name="xi" unicode="&#x3be;" horiz-adv-x="997" 
d="M858 -426l-135 94q78 65 78 148q0 79 -49.5 121.5t-167.5 42.5q-234 0 -368 108.5t-134 298.5q0 137 71 234t193 139q-91 34 -153 119.5t-62 197.5q0 167 121 272t295 105q182 0 295 -90t139 -260l-166 -45q-13 119 -81 179t-183 60q-110 0 -179 -62.5t-69 -162.5
q0 -111 75.5 -177.5t207.5 -66.5h164v-155h-181q-146 0 -230.5 -76t-84.5 -197q0 -140 85 -203t267 -63q179 0 273 -80t94 -237q0 -66 -31.5 -130.5t-83.5 -113.5z" />
    <glyph glyph-name="omicron" unicode="&#x3bf;" horiz-adv-x="1138" 
d="M78 485q0 218 137 362t354 144q145 0 258 -66.5t174.5 -181.5t61.5 -258q0 -217 -139 -361t-355 -144q-217 0 -354 143.5t-137 361.5zM881 485q0 154 -88 248q-85 98 -224 98q-135 0 -223 -97t-88 -249t88 -249t223 -97q137 0 224.5 96.5t87.5 249.5z" />
    <glyph glyph-name="pi" unicode="&#x3c0;" horiz-adv-x="1273" 
d="M707 264v557h-267v-821h-178v821h-233v150h1114v-150h-258v-569q0 -54 26.5 -83.5t71.5 -29.5q63 0 98 80l136 -84q-25 -72 -88.5 -113.5t-145.5 -41.5q-136 0 -206 75.5t-70 208.5z" />
    <glyph glyph-name="rho" unicode="&#x3c1;" horiz-adv-x="1165" 
d="M137 -406v844q0 138 37 245t103 173.5t153 100.5t191 34q213 0 339.5 -139.5t126.5 -364.5q0 -222 -126.5 -364.5t-321.5 -142.5q-110 0 -195.5 40.5t-134.5 118.5v-545h-172zM911 485q0 162 -85.5 254t-217.5 92q-127 0 -215 -91.5t-88 -254.5q0 -164 88 -256t215 -92
q128 0 215.5 92t87.5 256z" />
    <glyph glyph-name="uni03C2" unicode="&#x3c2;" horiz-adv-x="1032" 
d="M883 -426l-133 96q81 68 81 154q0 71 -58 113.5t-181 42.5q-224 0 -369 142t-145 370q0 143 66.5 258t177.5 178t243 63q177 0 296.5 -92.5t154.5 -257.5l-162 -49q-23 116 -98 180t-193 64q-57 0 -112 -23t-100.5 -65t-73 -109t-27.5 -147q0 -163 100.5 -260t263.5 -97
q184 0 285.5 -80.5t101.5 -228.5q0 -146 -118 -252z" />
    <glyph glyph-name="sigma" unicode="&#x3c3;" horiz-adv-x="1138" 
d="M78 475q0 218 141.5 357t386.5 139h467v-156h-209q90 -49 139.5 -142t49.5 -212q0 -206 -136 -343.5t-352 -137.5q-215 0 -351 141.5t-136 353.5zM872 475q0 149 -85 242.5t-220 93.5t-222 -94t-87 -242q0 -149 85.5 -242.5t221.5 -93.5t221.5 93.5t85.5 242.5z" />
    <glyph glyph-name="tau" unicode="&#x3c4;" horiz-adv-x="886" 
d="M303 279v536h-256v156h713v-156h-279v-551q0 -125 111 -125q76 0 100 80l137 -88q-29 -72 -90.5 -111.5t-146.5 -39.5q-141 0 -215 78t-74 221z" />
    <glyph glyph-name="upsilon" unicode="&#x3c5;" horiz-adv-x="1101" 
d="M137 401v570h176v-576q0 -126 62 -191t176 -65q111 0 174 66.5t63 189.5v576h177v-570q0 -195 -111.5 -308t-302.5 -113t-302.5 113t-111.5 308z" />
    <glyph glyph-name="phi" unicode="&#x3c6;" horiz-adv-x="1429" 
d="M1352 485q0 -212 -136 -348.5t-339 -136.5h-74v-406h-176v406h-74q-203 0 -339 136.5t-136 348.5t136 349t339 137h74v463h176v-463h74q203 0 339 -137t136 -349zM575 160h52v651h-52q-149 0 -237 -89t-88 -237t88 -236.5t237 -88.5zM1180 485q0 149 -88.5 237.5
t-239.5 88.5h-49v-651h49q152 0 240 88t88 237z" />
    <glyph glyph-name="chi" unicode="&#x3c7;" horiz-adv-x="962" 
d="M27 -406l354 717l-320 660h205l215 -477l213 477h207l-319 -658l354 -719h-203l-252 539l-252 -539h-202z" />
    <glyph glyph-name="psi" unicode="&#x3c8;" horiz-adv-x="1284" 
d="M553 160v1274h178v-1274q240 9 240 295v516h178v-510q0 -215 -108 -332.5t-310 -128.5v-406h-178v406q-202 11 -309 128t-107 333v510h176v-516q0 -286 240 -295z" />
    <glyph glyph-name="omega" unicode="&#x3c9;" horiz-adv-x="1523" 
d="M674 406v350h176v-350q0 -127 53.5 -197t147.5 -70q106 0 162.5 91.5t56.5 263.5q0 137 -43.5 260.5t-112.5 216.5h191q63 -86 102 -208t39 -259q0 -244 -99.5 -384t-287.5 -140q-109 0 -187 57.5t-110 161.5q-35 -104 -113 -161.5t-184 -57.5q-188 0 -287.5 140
t-99.5 384q0 134 39.5 255t103.5 212h189q-69 -93 -112.5 -216.5t-43.5 -260.5q0 -172 56.5 -263.5t162.5 -91.5q94 0 147.5 70t53.5 197z" />
    <glyph glyph-name="iotadieresis" unicode="&#x3ca;" horiz-adv-x="671" 
d="M137 279v692h176v-707q0 -61 29.5 -93t81.5 -32q79 0 100 80l140 -88q-29 -72 -92 -111.5t-148 -39.5q-141 0 -214 78t-73 221zM-47 1161v203h199v-203h-199zM295 1161v203h199v-203h-199z" />
    <glyph glyph-name="upsilondieresis" unicode="&#x3cb;" horiz-adv-x="1101" 
d="M137 401v570h176v-576q0 -126 62 -191t176 -65q111 0 174 66.5t63 189.5v576h177v-570q0 -195 -111.5 -308t-302.5 -113t-302.5 113t-111.5 308zM279 1161v203h198v-203h-198zM621 1161v203h198v-203h-198z" />
    <glyph glyph-name="omicrontonos" unicode="&#x3cc;" horiz-adv-x="1138" 
d="M78 485q0 218 137 362t354 144q145 0 258 -66.5t174.5 -181.5t61.5 -258q0 -217 -139 -361t-355 -144q-217 0 -354 143.5t-137 361.5zM881 485q0 154 -88 248q-85 98 -224 98q-135 0 -223 -97t-88 -249t88 -249t223 -97q137 0 224.5 96.5t87.5 249.5zM489 1137l76 272
h232v-29l-146 -243h-162z" />
    <glyph glyph-name="upsilontonos" unicode="&#x3cd;" horiz-adv-x="1101" 
d="M137 401v570h176v-576q0 -126 62 -191t176 -65q111 0 174 66.5t63 189.5v576h177v-570q0 -195 -111.5 -308t-302.5 -113t-302.5 113t-111.5 308zM471 1137l76 272h231v-29l-145 -243h-162z" />
    <glyph glyph-name="omegatonos" unicode="&#x3ce;" horiz-adv-x="1523" 
d="M674 406v350h176v-350q0 -127 53.5 -197t147.5 -70q106 0 162.5 91.5t56.5 263.5q0 137 -43.5 260.5t-112.5 216.5h191q63 -86 102 -208t39 -259q0 -244 -99.5 -384t-287.5 -140q-109 0 -187 57.5t-110 161.5q-35 -104 -113 -161.5t-184 -57.5q-188 0 -287.5 140
t-99.5 384q0 134 39.5 255t103.5 212h189q-69 -93 -112.5 -216.5t-43.5 -260.5q0 -172 56.5 -263.5t162.5 -91.5q94 0 147.5 70t53.5 197zM700 1137l76 272h232v-29l-146 -243h-162z" />
    <glyph glyph-name="uni0400" unicode="&#x400;" horiz-adv-x="1296" 
d="M156 1434h1009v-179h-821v-424h760v-178h-760v-475h842v-178h-1030v1434zM543 1599l-248 244v29h240l178 -273h-170z" />
    <glyph glyph-name="uni0401" unicode="&#x401;" horiz-adv-x="1296" 
d="M156 1434h1009v-179h-821v-424h760v-178h-760v-475h842v-178h-1030v1434zM356 1624v203h199v-203h-199zM698 1624v203h199v-203h-199z" />
    <glyph glyph-name="uni0402" unicode="&#x402;" horiz-adv-x="1722" 
d="M1272 -225v26q162 287 162 586q0 430 -322 430q-140 0 -235 -108t-95 -269v-440h-188v1262h-531v172h1250v-172h-531v-488q53 101 152 159t235 58q221 0 337 -158t116 -434q0 -165 -39.5 -313.5t-118.5 -310.5h-192z" />
    <glyph glyph-name="uni0403" unicode="&#x403;" horiz-adv-x="1255" 
d="M1194 1255h-850v-1255h-188v1434h1038v-179zM578 1599l178 273h239v-29l-247 -244h-170z" />
    <glyph glyph-name="uni0404" unicode="&#x404;" horiz-adv-x="1591" 
d="M1356 610l166 -67q-57 -253 -244 -408t-469 -155q-211 -2 -376.5 95t-254.5 265.5t-86 376.5q-2 152 53.5 289.5t151 236.5t230 156.5t282.5 54.5q264 0 420 -135q159 -135 215 -342l-172 -78q-38 176 -158 279.5t-305 103.5q-133 0 -242.5 -56t-181.5 -163.5t-90 -251.5
h627v-178h-629q23 -226 162 -353.5t354 -127.5q239 0 369 124q131 125 178 334z" />
    <glyph glyph-name="uni0405" unicode="&#x405;" horiz-adv-x="1288" 
d="M631 1276q-123 0 -201 -55t-78 -146q0 -102 94 -163.5t281 -98.5q255 -50 372.5 -147t117.5 -263q0 -185 -152.5 -304t-388.5 -119q-204 0 -373 102q-171 103 -244 336l174 108q43 -178 157.5 -273t287.5 -95q156 0 250 65t94 174q0 99 -81.5 156.5t-278.5 89.5
q-498 86 -498 428q0 161 135 272t348 111q180 0 316.5 -90t193.5 -250l-176 -100q-35 129 -124 195.5t-226 66.5z" />
    <glyph glyph-name="uni0406" unicode="&#x406;" horiz-adv-x="497" 
d="M156 0v1434h188v-1434h-188z" />
    <glyph glyph-name="uni0407" unicode="&#x407;" horiz-adv-x="497" 
d="M156 0v1434h188v-1434h-188zM-20 1624v203h198v-203h-198zM322 1624v203h198v-203h-198z" />
    <glyph glyph-name="uni0408" unicode="&#x408;" horiz-adv-x="1224" 
d="M895 1434h188v-955q0 -102 -28 -190t-84.5 -158t-151.5 -110.5t-219 -40.5q-228 0 -363 132.5t-135 342.5q0 140 58 247l178 -67q-47 -83 -47 -191q0 -128 85 -207t224 -79q147 0 221 90.5t74 265.5v920z" />
    <glyph glyph-name="uni0409" unicode="&#x409;" horiz-adv-x="2072" 
d="M59 0v25q67 125 93 274q30 156 30 408v727h932v-600h404q206 0 331 -119t125 -297q0 -183 -124.5 -300.5t-331.5 -117.5h-592v1262h-555v-535q0 -492 -113 -727h-199zM1114 178h391q122 0 197.5 65.5t75.5 174.5t-75 174t-198 65h-391v-479z" />
    <glyph glyph-name="uni040A" unicode="&#x40a;" horiz-adv-x="2025" 
d="M156 0v1434h188v-600h569v600h189v-600h368q206 0 331.5 -119t125.5 -297q0 -183 -125 -300.5t-332 -117.5h-557v657h-569v-657h-188zM1102 178h356q122 0 197.5 65.5t75.5 174.5t-75 174t-198 65h-356v-479z" />
    <glyph glyph-name="uni040B" unicode="&#x40b;" horiz-adv-x="1638" 
d="M594 0v1255h-531v179h1250v-179h-531v-464q44 94 136.5 147t211.5 53q166 0 263.5 -97.5t97.5 -264.5v-629h-188v578q0 122 -61.5 186.5t-174.5 64.5q-121 0 -203 -92t-82 -237v-500h-188z" />
    <glyph glyph-name="uni040C" unicode="&#x40c;" horiz-adv-x="1275" 
d="M156 0v1434h188v-623l617 623h245l-688 -686l723 -748h-256l-641 664v-664h-188zM567 1599l178 273h240v-29l-248 -244h-170z" />
    <glyph glyph-name="uni040D" unicode="&#x40d;" horiz-adv-x="1568" 
d="M1225 1303l-744 -1303h-325v1434h188v-1303l746 1303h323v-1434h-188v1303zM676 1599l-248 244v29h240l178 -273h-170z" />
    <glyph glyph-name="uni040E" unicode="&#x40e;" horiz-adv-x="1413" 
d="M244 0l354 543l-565 891h225l449 -719l450 719h223l-909 -1434h-227zM958 1821q0 -106 -70 -165t-179 -59q-110 0 -180 59t-70 165q0 22 2 28h139l-2 -22q0 -45 30.5 -74t80.5 -29t80 29t30 74l-2 22h139q2 -6 2 -28z" />
    <glyph glyph-name="uni040F" unicode="&#x40f;" horiz-adv-x="1361" 
d="M592 -225v225h-436v1434h188v-1262h676v1262h188v-1434h-438v-225h-178z" />
    <glyph glyph-name="uni0410" unicode="&#x410;" horiz-adv-x="1513" 
d="M27 0l600 1434h262l600 -1434h-209l-147 365h-750l-150 -365h-206zM451 537h612l-305 747z" />
    <glyph glyph-name="uni0411" unicode="&#x411;" horiz-adv-x="1413" 
d="M156 0v1434h991v-179h-803v-430h510q202 0 332.5 -112t130.5 -299t-130.5 -300.5t-332.5 -113.5h-698zM344 178h502q122 0 198 65.5t76 170.5t-76 169t-198 64h-502v-469z" />
    <glyph glyph-name="uni0412" unicode="&#x412;" horiz-adv-x="1409" 
d="M156 0v1434h649q201 0 328 -107t127 -266q0 -105 -58.5 -191t-157.5 -131q128 -42 197.5 -131t69.5 -221q0 -165 -133 -276t-330 -111h-692zM344 821h469q122 0 191 58.5t69 162.5q0 97 -74 155t-186 58h-469v-434zM344 178h498q120 0 196 64.5t76 169.5t-75.5 173
t-196.5 68h-498v-475z" />
    <glyph glyph-name="uni0413" unicode="&#x413;" horiz-adv-x="1255" 
d="M1194 1255h-850v-1255h-188v1434h1038v-179z" />
    <glyph glyph-name="uni0414" unicode="&#x414;" horiz-adv-x="1423" 
d="M59 -225v397h125q83 118 123 227q40 110 49 230q13 130 13 317v488h843v-1262h152v-397h-176v225h-952v-225h-177zM401 172h623v1090h-473v-324q0 -266 -31 -444q-30 -171 -119 -322z" />
    <glyph glyph-name="uni0415" unicode="&#x415;" horiz-adv-x="1296" 
d="M156 1434h1009v-179h-821v-424h760v-178h-760v-475h842v-178h-1030v1434z" />
    <glyph glyph-name="uni0416" unicode="&#x416;" horiz-adv-x="2054" 
d="M1296 748l723 -748h-256l-641 664v-664h-188v664l-643 -664h-256l723 748l-688 686h245l619 -623v623h188v-623l617 623h246z" />
    <glyph glyph-name="uni0417" unicode="&#x417;" horiz-adv-x="1191" 
d="M88 403l174 72q21 -150 106.5 -233.5t233.5 -83.5q138 0 218.5 60t80.5 175q0 116 -72 179t-192 63h-74v176h68q120 0 185 58t65 169q0 115 -73.5 176.5t-209.5 61.5q-117 0 -195 -66.5t-104 -189.5l-170 76q34 153 162 256q126 102 313 102q215 0 340 -108t125 -297
q0 -120 -60.5 -203t-166.5 -119q109 -26 178.5 -112.5t69.5 -213.5q0 -200 -138 -311q-137 -110 -356 -110q-211 0 -343 115.5t-165 307.5z" />
    <glyph glyph-name="uni0418" unicode="&#x418;" horiz-adv-x="1568" 
d="M1225 1303l-744 -1303h-325v1434h188v-1303l746 1303h323v-1434h-188v1303z" />
    <glyph glyph-name="uni0419" unicode="&#x419;" horiz-adv-x="1568" 
d="M1225 1303l-744 -1303h-325v1434h188v-1303l746 1303h323v-1434h-188v1303zM1010 1821q0 -106 -70 -165t-180 -59t-180 59t-70 165q0 22 2 28h139l-2 -22q0 -45 30.5 -74t80.5 -29t80 29t30 74l-2 22h140q2 -6 2 -28z" />
    <glyph glyph-name="uni041A" unicode="&#x41a;" horiz-adv-x="1275" 
d="M156 0v1434h188v-623l617 623h245l-688 -686l723 -748h-256l-641 664v-664h-188z" />
    <glyph glyph-name="uni041B" unicode="&#x41b;" horiz-adv-x="1423" 
d="M59 0v25q67 125 93 274q30 156 30 408v727h1086v-1434h-189v1262h-708v-535q0 -492 -113 -727h-199z" />
    <glyph glyph-name="uni041C" unicode="&#x41c;" horiz-adv-x="1929" 
d="M1776 0h-189v1333l-479 -1333h-287l-477 1333v-1333h-188v1434h348l461 -1293l460 1293h351v-1434z" />
    <glyph glyph-name="uni041D" unicode="&#x41d;" horiz-adv-x="1509" 
d="M1165 621h-821v-621h-188v1434h188v-641h821v641h189v-1434h-189v621z" />
    <glyph glyph-name="uni041E" unicode="&#x41e;" horiz-adv-x="1662" 
d="M831 1454q152 3 291 -56t238 -159t157 -237t56 -285q2 -149 -56 -286t-157 -237t-238 -158.5t-291 -55.5q-153 -3 -291.5 55.5t-237 158.5t-155.5 237t-55 286q-2 148 55 285t155.5 237t237 159t291.5 56zM831 158q152 0 275.5 69.5t195.5 197.5t72 292q0 123 -41.5 228
t-114 177t-172.5 113t-215 41q-235 0 -388.5 -156t-153.5 -405q0 -164 72 -292t195 -196.5t275 -68.5z" />
    <glyph glyph-name="uni041F" unicode="&#x41f;" horiz-adv-x="1509" 
d="M1165 1262h-821v-1262h-188v1434h1198v-1434h-189v1262z" />
    <glyph glyph-name="uni0420" unicode="&#x420;" horiz-adv-x="1347" 
d="M344 590v-590h-188v1434h632q216 0 340.5 -120.5t124.5 -301.5q0 -85 -32.5 -161.5t-91 -134.5t-147 -92t-194.5 -34h-444zM344 768h428q130 0 206.5 64.5t76.5 179.5t-76.5 179t-206.5 64h-428v-487z" />
    <glyph glyph-name="uni0421" unicode="&#x421;" horiz-adv-x="1591" 
d="M289 717q0 -262 144 -413.5t376 -151.5q239 0 369 124q131 125 178 334l166 -67q-57 -253 -244 -408t-469 -155q-211 -2 -376.5 95t-254.5 265.5t-86 376.5q-2 152 53.5 289.5t151 236.5t230 156.5t282.5 54.5q264 0 420 -135q159 -135 215 -342l-172 -78
q-38 176 -158 279.5t-305 103.5q-109 0 -204.5 -40.5t-165.5 -112.5t-110 -179t-40 -233z" />
    <glyph glyph-name="uni0422" unicode="&#x422;" horiz-adv-x="1376" 
d="M1313 1434v-179h-531v-1255h-188v1255h-531v179h1250z" />
    <glyph glyph-name="uni0423" unicode="&#x423;" horiz-adv-x="1413" 
d="M244 0l354 543l-565 891h225l449 -719l450 719h223l-909 -1434h-227z" />
    <glyph glyph-name="uni0424" unicode="&#x424;" horiz-adv-x="1677" 
d="M934 0h-189v164h-110q-154 -3 -280 71.5t-195.5 202.5t-67.5 279q0 149 69.5 275.5t195 202t278.5 75.5h110v164h189v-164h108q153 0 278.5 -75.5t195 -202t69.5 -275.5q2 -151 -67.5 -279t-195.5 -202.5t-280 -71.5h-108v-164zM657 342h88v750h-88q-172 0 -274 -104
t-102 -271t102 -271t274 -104zM1020 1092h-86v-750h86q172 0 274.5 104t102.5 271t-102.5 271t-274.5 104z" />
    <glyph glyph-name="uni0425" unicode="&#x425;" horiz-adv-x="1380" 
d="M37 0l543 778l-461 656h229l342 -516l350 516h222l-461 -656l542 -778h-223l-430 631l-430 -631h-223z" />
    <glyph glyph-name="uni0426" unicode="&#x426;" horiz-adv-x="1417" 
d="M1182 -225v225h-1026v1434h188v-1262h662v1262h188v-1262h166v-397h-178z" />
    <glyph glyph-name="uni0427" unicode="&#x427;" horiz-adv-x="1392" 
d="M1051 0v494q-71 -80 -179.5 -125t-240.5 -45q-226 0 -358 141t-132 371v598h189v-570q0 -176 90.5 -269t253.5 -93q206 0 377 207v725h188v-1434h-188z" />
    <glyph glyph-name="uni0428" unicode="&#x428;" horiz-adv-x="1888" 
d="M1546 1434h189v-1434h-1579v1434h188v-1262h506v1262h188v-1262h508v1262z" />
    <glyph glyph-name="uni0429" unicode="&#x429;" horiz-adv-x="1957" 
d="M1722 -225v225h-1566v1434h188v-1262h506v1262h188v-1262h508v1262h189v-1262h163v-397h-176z" />
    <glyph glyph-name="uni042A" unicode="&#x42a;" horiz-adv-x="1611" 
d="M1516 414q0 -187 -130.5 -300.5t-332.5 -113.5h-695v1255h-295v179h484v-609h506q202 0 332.5 -112t130.5 -299zM1317 414q0 105 -75.5 169t-197.5 64h-497v-469h497q122 0 197.5 65t75.5 171z" />
    <glyph glyph-name="uni042B" unicode="&#x42b;" horiz-adv-x="1906" 
d="M156 0v1434h188v-609h504q204 0 333.5 -111t129.5 -300q0 -188 -130 -301t-333 -113h-692zM344 178h498q122 0 197 65t75 171q0 105 -75 169t-197 64h-498v-469zM1565 0v1434h188v-1434h-188z" />
    <glyph glyph-name="uni042C" unicode="&#x42c;" horiz-adv-x="1409" 
d="M156 0v1434h188v-609h504q204 0 333.5 -111t129.5 -300q0 -188 -130 -301t-333 -113h-692zM344 178h498q122 0 197 65t75 171q0 105 -75 169t-197 64h-498v-469z" />
    <glyph glyph-name="uni042D" unicode="&#x42d;" horiz-adv-x="1591" 
d="M70 543l166 67q46 -214 182.5 -336t365.5 -122q212 0 357 127t166 354h-648v178h648q-27 214 -174 342.5t-349 128.5q-185 0 -306 -103.5t-159 -279.5l-172 78q59 207 218 342q163 135 426 135q203 3 367 -93.5t255 -266.5t88 -377q0 -159 -50 -294.5t-141.5 -233.5
t-227.5 -153.5t-300 -55.5q-288 0 -471 155q-182 154 -241 408z" />
    <glyph glyph-name="uni042E" unicode="&#x42e;" horiz-adv-x="2236" 
d="M2146 717q2 -149 -55.5 -286t-157 -237t-238 -158.5t-290.5 -55.5q-141 -2 -270 47.5t-225 136t-159.5 205.5t-78.5 252h-328v-621h-188v1434h188v-641h326q13 181 114.5 334t266 241.5t354.5 85.5q152 3 291 -56t238 -159t156.5 -237t55.5 -285zM1948 717
q0 123 -41.5 228t-114 177t-172.5 113t-215 41t-215 -41t-172.5 -113.5t-114 -177.5t-41.5 -229q0 -164 72 -292t195.5 -196.5t275.5 -68.5t275.5 69.5t195.5 197.5t72 292z" />
    <glyph glyph-name="uni042F" unicode="&#x42f;" horiz-adv-x="1376" 
d="M96 0v29l486 577h-11q-212 0 -337 118.5t-125 307.5q0 171 124 286.5t332 115.5h656v-1434h-189v606h-201l-507 -606h-228zM582 784h450v471h-450q-130 0 -202.5 -61.5t-72.5 -173.5q0 -110 73 -173t202 -63z" />
    <glyph glyph-name="uni0430" unicode="&#x430;" horiz-adv-x="1054" 
d="M92 276q0 145 99 223.5t262 78.5q104 0 206 -31l89 -25v101q0 104 -66.5 161.5t-177.5 57.5q-104 0 -171.5 -53.5t-86.5 -147.5l-160 45q30 141 140 223t278 82q197 0 305.5 -101t108.5 -282v-608h-170v154q-37 -79 -127.5 -126.5t-206.5 -47.5q-136 0 -230 79
q-92 83 -92 217zM748 362v21l-91 27q-102 30 -180 30q-95 0 -149 -39.5t-54 -113.5q0 -69 52 -110.5t147 -41.5q123 0 199 61.5t76 165.5z" />
    <glyph glyph-name="uni0431" unicode="&#x431;" horiz-adv-x="1144" 
d="M78 594q0 290 141 459q145 170 379 237q97 28 145 45.5t85.5 42.5t48 53.5t8.5 73.5h162l2 -32q0 -125 -91 -200.5t-276 -119.5q-190 -49 -290.5 -142.5t-131.5 -244.5q50 106 144.5 165.5t220.5 59.5q138 0 240.5 -70.5t153 -185t50.5 -254.5q0 -213 -137 -357
t-348 -144q-261 0 -383 174q-123 176 -123 440zM887 481q0 158 -88 252q-88 98 -224 98q-137 0 -225 -97.5t-88 -252.5q0 -151 89 -246.5t224 -95.5q138 0 225 94t87 248z" />
    <glyph glyph-name="uni0432" unicode="&#x432;" horiz-adv-x="1081" 
d="M137 0v971h500q146 0 231.5 -69.5t85.5 -188.5q0 -74 -43.5 -134t-115.5 -83q89 -19 139.5 -77t50.5 -149q0 -116 -90 -194q-88 -76 -227 -76h-531zM313 569h322q67 0 104 32t37 89t-37 89t-104 32h-322v-242zM313 160h342q69 0 110.5 34.5t41.5 94.5t-40 93.5t-112 33.5
h-342v-256z" />
    <glyph glyph-name="uni0433" unicode="&#x433;" horiz-adv-x="829" 
d="M137 0v971h651v-166h-475v-805h-176z" />
    <glyph glyph-name="uni0434" unicode="&#x434;" horiz-adv-x="1159" 
d="M68 -225v385h92q69 135 90 248q22 123 22 292v271h705v-811h115v-385h-166v225h-693v-225h-165zM346 160h459v651h-361v-111q0 -171 -24 -294q-21 -118 -74 -246z" />
    <glyph glyph-name="uni0435" unicode="&#x435;" horiz-adv-x="1069" 
d="M848 352l153 -59q-50 -151 -160 -232t-274 -81q-216 0 -352.5 140t-136.5 372q0 139 57.5 252.5t164 180t241.5 66.5q195 0 313 -112q119 -110 119 -301q0 -64 -12 -119h-703q1 -153 88 -238.5t221 -85.5q220 0 281 217zM258 586h539l2 28q0 102 -73.5 162t-186.5 60
t-190.5 -67.5t-90.5 -182.5z" />
    <glyph glyph-name="uni0436" unicode="&#x436;" horiz-adv-x="1456" 
d="M47 0l449 512l-430 459h223l350 -391v391h178v-391l350 391h222l-428 -459l446 -512h-219l-371 434v-434h-178v434l-371 -434h-221z" />
    <glyph glyph-name="uni0437" unicode="&#x437;" horiz-adv-x="925" 
d="M68 291l153 69q18 -104 80.5 -162.5t169.5 -58.5q93 0 147 39t54 111q0 59 -42.5 92t-115.5 33h-88v155h68q68 0 111.5 37t43.5 101t-46 97.5t-124 33.5q-159 0 -209 -176l-151 75q44 122 137 188t223 66q152 0 247 -74t95 -200q0 -83 -46 -142.5t-122 -80.5
q191 -44 191 -222q0 -128 -112 -210t-275 -82q-153 0 -258.5 86.5t-130.5 224.5z" />
    <glyph glyph-name="uni0438" unicode="&#x438;" horiz-adv-x="1179" 
d="M137 0v971h176v-799l459 799h272v-971h-178v799l-458 -799h-271z" />
    <glyph glyph-name="uni0439" unicode="&#x439;" horiz-adv-x="1179" 
d="M137 0v971h176v-799l459 799h272v-971h-178v799l-458 -799h-271zM840 1358q0 -105 -70 -164t-180 -59t-180 59t-70 164q0 22 2 28h139l-2 -22q0 -45 30.5 -73.5t80.5 -28.5t80 28.5t30 73.5l-2 22h140q2 -6 2 -28z" />
    <glyph glyph-name="uni043A" unicode="&#x43a;" horiz-adv-x="956" 
d="M137 0v971h176v-391l351 391h227l-430 -459l448 -512h-225l-371 434v-434h-176z" />
    <glyph glyph-name="uni043B" unicode="&#x43b;" horiz-adv-x="1069" 
d="M53 0v29q62 116 92 258q33 138 33 389v295h754v-971h-178v811h-398v-102q0 -284 -37 -441q-35 -161 -90 -268h-176z" />
    <glyph glyph-name="uni043C" unicode="&#x43c;" horiz-adv-x="1437" 
d="M1300 971v-971h-178v815l-280 -815h-248l-281 815v-815h-176v971h299l283 -821l282 821h299z" />
    <glyph glyph-name="uni043D" unicode="&#x43d;" horiz-adv-x="1118" 
d="M313 971v-393h492v393h178v-971h-178v418h-492v-418h-176v971h176z" />
    <glyph glyph-name="uni043E" unicode="&#x43e;" horiz-adv-x="1138" 
d="M78 485q0 218 137 362t354 144q145 0 258 -66.5t174.5 -181.5t61.5 -258q0 -217 -139 -361t-355 -144q-217 0 -354 143.5t-137 361.5zM881 485q0 154 -88 248q-85 98 -224 98q-135 0 -223 -97t-88 -249t88 -249t223 -97q137 0 224.5 96.5t87.5 249.5z" />
    <glyph glyph-name="uni043F" unicode="&#x43f;" horiz-adv-x="1107" 
d="M137 0v971h834v-971h-176v811h-482v-811h-176z" />
    <glyph glyph-name="uni0440" unicode="&#x440;" horiz-adv-x="1173" 
d="M137 971h168v-183q48 89 144.5 146t203.5 57q197 0 320 -140.5t123 -365.5q0 -224 -128 -364.5t-327 -140.5q-105 0 -192 45.5t-136 126.5v-558h-176v1377zM612 137q127 0 217.5 92.5t90.5 253.5q0 160 -90.5 254t-217.5 94q-121 0 -214 -97t-93 -251t93 -250t214 -96z
" />
    <glyph glyph-name="uni0441" unicode="&#x441;" horiz-adv-x="1126" 
d="M584 135q136 0 213.5 74.5t107.5 216.5l158 -59q-41 -184 -166 -285.5t-309 -101.5q-229 0 -369.5 141t-140.5 371q0 107 39 200.5t105 158.5t155.5 102.5t187.5 37.5q177 0 296.5 -92.5t154.5 -257.5l-162 -49q-23 116 -98 180t-193 64q-57 0 -112 -23t-100.5 -65
t-73 -109t-27.5 -147q0 -157 99.5 -257t234.5 -100z" />
    <glyph glyph-name="uni0442" unicode="&#x442;" horiz-adv-x="849" 
d="M336 0v811h-305v160h788v-160h-305v-811h-178z" />
    <glyph glyph-name="uni0443" unicode="&#x443;" horiz-adv-x="985" 
d="M770 971h188l-622 -1377h-189l240 531l-371 846h193l272 -639z" />
    <glyph glyph-name="uni0444" unicode="&#x444;" horiz-adv-x="1828" 
d="M825 -406v543q-54 -75 -136 -116t-175 -41q-189 0 -312.5 142t-123.5 361q0 228 122 368t310 140q105 0 188 -46t127 -128v617h179v-617q43 82 126 128t189 46q188 0 310 -140t122 -368q0 -219 -124 -361t-314 -142q-93 0 -174 41t-135 116v-543h-179zM836 483
q0 156 -84.5 251t-206.5 95q-130 0 -210.5 -94t-80.5 -252q0 -159 80 -252.5t211 -93.5q122 0 206.5 94.5t84.5 251.5zM1573 483q0 158 -80.5 252t-210.5 94q-122 0 -205.5 -94t-83.5 -252t83.5 -252t205.5 -94q132 0 211.5 93t79.5 253z" />
    <glyph glyph-name="uni0445" unicode="&#x445;" horiz-adv-x="958" 
d="M889 971l-311 -457l354 -514h-203l-250 375l-250 -375h-202l356 512l-315 459h206l205 -316l203 316h207z" />
    <glyph glyph-name="uni0446" unicode="&#x446;" horiz-adv-x="1167" 
d="M934 -225v225h-797v971h176v-811h473v811h179v-811h135v-385h-166z" />
    <glyph glyph-name="uni0447" unicode="&#x447;" horiz-adv-x="1120" 
d="M807 528v443h176v-971h-176v383q-50 -71 -136 -113.5t-200 -42.5q-158 0 -246 94t-88 254v396h176v-363q0 -112 56 -170.5t159 -58.5q85 0 151.5 36.5t127.5 112.5z" />
    <glyph glyph-name="uni0448" unicode="&#x448;" horiz-adv-x="1597" 
d="M137 0v971h176v-811h398v811h176v-811h397v811h176v-971h-1323z" />
    <glyph glyph-name="uni0449" unicode="&#x449;" horiz-adv-x="1662" 
d="M1430 -225v225h-1293v971h176v-811h398v811h176v-811h397v811h176v-811h135v-385h-165z" />
    <glyph glyph-name="uni044A" unicode="&#x44a;" horiz-adv-x="1179" 
d="M295 0v811h-256v160h434v-350h287q147 0 235 -86.5t88 -219.5t-89 -224t-234 -91h-465zM473 160h281q69 0 113 41.5t44 107.5q0 68 -42.5 109t-114.5 41h-281v-299z" />
    <glyph glyph-name="uni044B" unicode="&#x44b;" horiz-adv-x="1472" 
d="M137 0v971h176v-350h289q147 0 235.5 -86.5t88.5 -219.5t-90 -224t-234 -91h-465zM313 160h281q72 0 116 41.5t44 107.5q0 67 -44 108.5t-116 41.5h-281v-299zM1159 971h176v-971h-176v971z" />
    <glyph glyph-name="uni044C" unicode="&#x44c;" horiz-adv-x="1021" 
d="M137 0v971h176v-350h289q147 0 235.5 -86.5t88.5 -219.5t-90 -224t-234 -91h-465zM313 160h281q72 0 116 41.5t44 107.5q0 67 -44 108.5t-116 41.5h-281v-299z" />
    <glyph glyph-name="uni044D" unicode="&#x44d;" horiz-adv-x="1126" 
d="M1051 492q0 -230 -141 -371t-371 -141q-184 0 -309.5 102t-163.5 285l157 59q57 -291 322 -291q123 0 213 75t114 204h-356v155h356q-21 129 -112 199q-89 68 -197 68q-116 0 -191 -63.5t-100 -180.5l-159 49q38 167 157 258.5t299 91.5q204 0 343 -140t139 -359z" />
    <glyph glyph-name="uni044E" unicode="&#x44e;" horiz-adv-x="1542" 
d="M1464 483q0 -219 -136.5 -361t-354.5 -142q-201 0 -336 123t-154 315h-170v-418h-176v971h176v-393h174q27 181 160 296q132 117 326 117q217 0 354 -144.5t137 -363.5zM1284 483q0 152 -88 250t-223 98q-137 0 -225.5 -98t-88.5 -250q0 -153 88.5 -248.5t225.5 -95.5
q136 0 223.5 95.5t87.5 248.5z" />
    <glyph glyph-name="uni044F" unicode="&#x44f;" horiz-adv-x="1015" 
d="M68 20l301 369q-127 0 -209 82q-84 84 -84 209q0 130 85 210.5t232 80.5h486v-971h-177v389h-122l-322 -389h-190v20zM702 543v268h-296q-73 0 -113.5 -36.5t-40.5 -100.5q0 -62 40.5 -96.5t113.5 -34.5h296z" />
    <glyph glyph-name="uni0450" unicode="&#x450;" horiz-adv-x="1069" 
d="M848 352l153 -59q-50 -151 -160 -232t-274 -81q-216 0 -352.5 140t-136.5 372q0 139 57.5 252.5t164 180t241.5 66.5q195 0 313 -112q119 -110 119 -301q0 -64 -12 -119h-703q1 -153 88 -238.5t221 -85.5q220 0 281 217zM258 586h539l2 28q0 102 -73.5 162t-186.5 60
t-190.5 -67.5t-90.5 -182.5zM455 1137l-248 243v29h239l179 -272h-170z" />
    <glyph glyph-name="uni0451" unicode="&#x451;" horiz-adv-x="1069" 
d="M848 352l153 -59q-50 -151 -160 -232t-274 -81q-216 0 -352.5 140t-136.5 372q0 139 57.5 252.5t164 180t241.5 66.5q195 0 313 -112q119 -110 119 -301q0 -64 -12 -119h-703q1 -153 88 -238.5t221 -85.5q220 0 281 217zM258 586h539l2 28q0 102 -73.5 162t-186.5 60
t-190.5 -67.5t-90.5 -182.5zM268 1161v203h199v-203h-199zM610 1161v203h199v-203h-199z" />
    <glyph glyph-name="uni0452" unicode="&#x452;" horiz-adv-x="1136" 
d="M1001 629v-785q0 -129 -70 -199.5t-190 -70.5q-105 0 -179 55t-87 146l166 51q6 -42 32 -66t68 -24q39 0 60.5 25.5t21.5 72.5v754q0 123 -60 187.5t-171 64.5q-119 0 -199 -94.5t-80 -243.5v-502h-176v1149h-137v143h137v142h176v-142h312v-143h-312v-383
q41 105 132.5 165t209.5 60q159 0 252.5 -98t93.5 -264z" />
    <glyph glyph-name="uni0453" unicode="&#x453;" horiz-adv-x="829" 
d="M137 0v971h651v-166h-475v-805h-176zM379 1137l178 272h240v-29l-248 -243h-170z" />
    <glyph glyph-name="uni0454" unicode="&#x454;" horiz-adv-x="1128" 
d="M76 492q0 219 138.5 359t342.5 140q180 0 299.5 -91.5t157.5 -258.5l-160 -49q-25 117 -100 180.5t-191 63.5q-107 0 -196 -68q-93 -71 -113 -199h356v-155h-356q24 -129 114.5 -204t213.5 -75q264 0 321 291l158 -59q-38 -183 -163.5 -285t-309.5 -102q-230 0 -371 141
t-141 371z" />
    <glyph glyph-name="uni0455" unicode="&#x455;" horiz-adv-x="966" 
d="M68 254l145 76q41 -103 110 -149t179 -46q96 0 152.5 38.5t56.5 102.5q0 71 -56.5 110.5t-199.5 59.5q-334 49 -334 279q0 117 98 190q101 76 252 76q257 0 350 -215l-137 -76q-50 148 -213 148q-81 0 -134.5 -34.5t-53.5 -90.5q0 -62 58 -95t202 -53q340 -46 340 -288
q0 -134 -111.5 -220.5t-277.5 -86.5q-161 0 -271.5 73.5t-154.5 200.5z" />
    <glyph glyph-name="uni0456" unicode="&#x456;" horiz-adv-x="450" 
d="M137 971h176v-971h-176v971zM127 1151v207h197v-207h-197z" />
    <glyph glyph-name="uni0457" unicode="&#x457;" horiz-adv-x="450" 
d="M137 971h176v-971h-176v971zM-47 1161v203h199v-203h-199zM295 1161v203h199v-203h-199z" />
    <glyph glyph-name="uni0458" unicode="&#x458;" horiz-adv-x="450" 
d="M137 -406v1377h176v-1377h-176zM127 1151v207h197v-207h-197z" />
    <glyph glyph-name="uni0459" unicode="&#x459;" horiz-adv-x="1595" 
d="M53 0v29q62 116 92 258q33 138 33 389v295h711v-350h289q146 0 233.5 -86.5t87.5 -219.5t-88 -224t-233 -91h-467v811h-355v-102q0 -284 -37 -441q-35 -161 -90 -268h-176zM889 160h280q69 0 114.5 41.5t45.5 107.5q0 67 -44 108.5t-116 41.5h-280v-299z" />
    <glyph glyph-name="uni045A" unicode="&#x45a;" horiz-adv-x="1650" 
d="M137 0v971h176v-393h461v393h176v-393h287q147 0 233 -79t86 -210q0 -134 -85 -211.5t-234 -77.5h-463v418h-461v-418h-176zM950 160h281q73 0 113 33.5t40 95.5t-40 95.5t-113 33.5h-281v-258z" />
    <glyph glyph-name="uni045B" unicode="&#x45b;" horiz-adv-x="1136" 
d="M313 0h-176v1434h176v-668q41 105 132.5 165t209.5 60q159 0 252.5 -98t93.5 -264v-629h-178v588q0 123 -60 187.5t-171 64.5q-119 0 -199 -94.5t-80 -243.5v-502zM0 1292h625v-143h-625v143z" />
    <glyph glyph-name="uni045C" unicode="&#x45c;" horiz-adv-x="956" 
d="M137 0v971h176v-391l351 391h227l-430 -459l448 -512h-225l-371 434v-434h-176zM393 1137l178 272h240v-29l-248 -243h-170z" />
    <glyph glyph-name="uni045D" unicode="&#x45d;" horiz-adv-x="1179" 
d="M137 0v971h176v-799l459 799h272v-971h-178v799l-458 -799h-271zM504 1137l-248 243v29h240l178 -272h-170z" />
    <glyph glyph-name="uni045E" unicode="&#x45e;" horiz-adv-x="985" 
d="M770 971h188l-622 -1377h-189l240 531l-371 846h193l272 -639zM731 1358q0 -105 -70 -164t-180 -59t-180 59t-70 164q0 22 2 28h140l-2 -22q0 -45 30 -73.5t80 -28.5t80.5 28.5t30.5 73.5l-2 22h139q2 -6 2 -28z" />
    <glyph glyph-name="uni045F" unicode="&#x45f;" horiz-adv-x="1105" 
d="M471 -225v225h-334v971h176v-811h480v811h178v-971h-334v-225h-166z" />
    <glyph glyph-name="uni0462" unicode="&#x462;" horiz-adv-x="1550" 
d="M1452 414q0 -188 -130 -301t-333 -113h-692v1081h-291v154h291v199h188v-199h291v-154h-291v-256h504q204 0 333.5 -111t129.5 -300zM1255 414q0 105 -75 169t-197 64h-498v-469h498q122 0 197 65t75 171z" />
    <glyph glyph-name="uni0463" unicode="&#x463;" horiz-adv-x="980" 
d="M885 387q0 -183 -117 -285t-313 -102h-318v1077h-252v160h252v197h176v-197h328v-160h-328v-301h142q194 0 312 -103t118 -286zM696 387q0 109 -64.5 168t-185.5 59h-133v-454h133q120 0 185 60t65 167z" />
    <glyph glyph-name="uni0472" unicode="&#x472;" horiz-adv-x="1662" 
d="M1573 717q2 -149 -56 -286t-157 -237t-238 -158.5t-291 -55.5q-153 -3 -291.5 55.5t-237 158.5t-155.5 237t-55 286q-2 148 55 285t155.5 237t237 159t291.5 56q152 3 291 -56t238 -159t157 -237t56 -285zM293 799q115 92 270 92q87 0 151.5 -23t151.5 -77
q74 -45 122 -63.5t106 -18.5q169 0 270 122q-35 204 -182 324q-145 121 -351 121q-214 0 -362 -130.5t-176 -346.5zM1370 633q-116 -90 -268 -90q-88 0 -151.5 22.5t-153.5 77.5q-74 45 -121 63.5t-105 18.5q-170 0 -272 -127q33 -200 181.5 -320t350.5 -120q139 0 254.5 58
t191 166.5t93.5 250.5z" />
    <glyph glyph-name="uni0473" unicode="&#x473;" horiz-adv-x="1138" 
d="M1063 481q0 -217 -138.5 -359t-355.5 -142q-218 0 -354.5 142t-136.5 359q0 143 61.5 259t174 183.5t255.5 67.5q218 0 356 -146t138 -364zM266 563q61 37 148 37q74 0 178 -49q60 -25 86.5 -33t56.5 -8q84 0 137 53q-23 122 -105 195t-198 73t-198 -73t-105 -195z
M874 410q-61 -37 -147 -37q-77 0 -178 49q-87 43 -146 43q-88 0 -139 -57q23 -124 105 -196.5t200 -72.5t201.5 74t103.5 197z" />
    <glyph glyph-name="uni0474" unicode="&#x474;" horiz-adv-x="1654" 
d="M614 0l-591 1434h206l516 -1289l457 1137q78 193 252 193q76 0 133.5 -42t83.5 -120l-151 -76q-15 57 -64 57q-51 0 -78 -65l-501 -1229h-263z" />
    <glyph glyph-name="uni0475" unicode="&#x475;" horiz-adv-x="1138" 
d="M422 0l-383 971h186l305 -799l252 668q35 90 88.5 132t133.5 42q120 0 178 -111l-121 -108q-14 39 -55 39q-45 0 -60 -50l-309 -784h-215z" />
    <glyph glyph-name="uni0490" unicode="&#x490;" horiz-adv-x="1255" 
d="M1016 1782h178v-527h-850v-1255h-188v1434h860v348z" />
    <glyph glyph-name="uni0491" unicode="&#x491;" horiz-adv-x="829" 
d="M612 1198h176v-393h-475v-805h-176v971h475v227z" />
    <glyph glyph-name="uni0492" unicode="&#x492;" horiz-adv-x="1341" 
d="M1237 1255h-850v-442h526v-160h-526v-653h-188v653h-162v160h162v621h1038v-179z" />
    <glyph glyph-name="uni0493" unicode="&#x493;" horiz-adv-x="856" 
d="M821 805h-473v-252h244v-139h-244v-414h-178v414h-133v139h133v418h651v-166z" />
    <glyph glyph-name="uni0496" unicode="&#x496;" horiz-adv-x="2054" 
d="M1296 748l723 -748h-256l-641 664v-664h-188v664l-643 -664h-256l723 748l-688 686h245l619 -623v623h188v-623l617 623h246zM1853 -225v397h179v-397h-179z" />
    <glyph glyph-name="uni0497" unicode="&#x497;" horiz-adv-x="1456" 
d="M47 0l449 512l-430 459h223l350 -391v391h178v-391l350 391h222l-428 -459l446 -512h-219l-371 434v-434h-178v434l-371 -434h-221zM1278 -225v375h158v-375h-158z" />
    <glyph glyph-name="uni0498" unicode="&#x498;" horiz-adv-x="1191" 
d="M88 403l174 72q21 -150 106.5 -233.5t233.5 -83.5q138 0 218.5 60t80.5 175q0 116 -72 179t-192 63h-74v176h68q120 0 185 58t65 169q0 115 -73.5 176.5t-209.5 61.5q-117 0 -195 -66.5t-104 -189.5l-170 76q34 153 162 256q126 102 313 102q215 0 340 -108t125 -297
q0 -120 -60.5 -203t-166.5 -119q109 -26 178.5 -112.5t69.5 -213.5q0 -200 -138 -311q-137 -110 -356 -110q-211 0 -343 115.5t-165 307.5zM545 -109q19 21 47.5 34.5t54.5 13.5q70 0 114 -43t44 -115q0 -77 -48 -121.5t-124 -44.5q-71 0 -120.5 35.5t-61.5 101.5l96 25
q5 -31 27.5 -50.5t54.5 -19.5q38 0 60 20.5t22 53.5t-22.5 54.5t-59.5 21.5q-24 0 -45.5 -12t-32.5 -31l-96 18q23 80 43 201h104q-31 -97 -57 -142z" />
    <glyph glyph-name="uni0499" unicode="&#x499;" horiz-adv-x="925" 
d="M68 291l153 69q18 -104 80.5 -162.5t169.5 -58.5q93 0 147 39t54 111q0 59 -42.5 92t-115.5 33h-88v155h68q68 0 111.5 37t43.5 101t-46 97.5t-124 33.5q-159 0 -209 -176l-151 75q44 122 137 188t223 66q152 0 247 -74t95 -200q0 -83 -46 -142.5t-122 -80.5
q191 -44 191 -222q0 -128 -112 -210t-275 -82q-153 0 -258.5 86.5t-130.5 224.5zM410 -109q19 21 47.5 34.5t54.5 13.5q70 0 114 -43t44 -115q0 -77 -48 -121.5t-124 -44.5q-71 0 -121 35.5t-62 101.5l97 25q5 -31 27.5 -50.5t54.5 -19.5q38 0 59.5 20.5t21.5 53.5t-22 54.5
t-59 21.5q-24 0 -45.5 -12t-32.5 -31l-97 18q23 80 43 201h105q-31 -97 -57 -142z" />
    <glyph glyph-name="uni049A" unicode="&#x49a;" horiz-adv-x="1275" 
d="M156 0v1434h188v-623l617 623h245l-688 -686l723 -748h-256l-641 664v-664h-188zM1075 -225v397h178v-397h-178z" />
    <glyph glyph-name="uni049B" unicode="&#x49b;" horiz-adv-x="956" 
d="M137 0v971h176v-391l351 391h227l-430 -459l448 -512h-225l-371 434v-434h-176zM778 -225v375h158v-375h-158z" />
    <glyph glyph-name="uni04A0" unicode="&#x4a0;" horiz-adv-x="1603" 
d="M844 748l723 -748h-256l-641 664v-664h-189v1274h-418v160h607v-623l616 623h246z" />
    <glyph glyph-name="uni04A1" unicode="&#x4a1;" horiz-adv-x="1093" 
d="M598 512l449 -512h-226l-370 434v-434h-177v827h-243v144h420v-391l350 391h227z" />
    <glyph glyph-name="uni04A2" unicode="&#x4a2;" horiz-adv-x="1509" 
d="M1165 621h-821v-621h-188v1434h188v-641h821v641h189v-1434h-189v621zM1329 -225v397h178v-397h-178z" />
    <glyph glyph-name="uni04A3" unicode="&#x4a3;" horiz-adv-x="1118" 
d="M313 971v-393h492v393h178v-971h-178v418h-492v-418h-176v971h176zM983 -225v375h158v-375h-158z" />
    <glyph glyph-name="uni04AA" unicode="&#x4aa;" horiz-adv-x="1591" 
d="M289 717q0 -262 144 -413.5t376 -151.5q239 0 369 124q131 125 178 334l166 -67q-57 -253 -244 -408t-469 -155q-211 -2 -376.5 95t-254.5 265.5t-86 376.5q-2 152 53.5 289.5t151 236.5t230 156.5t282.5 54.5q264 0 420 -135q159 -135 215 -342l-172 -78
q-38 176 -158 279.5t-305 103.5q-109 0 -204.5 -40.5t-165.5 -112.5t-110 -179t-40 -233zM745 -109q19 21 48 34.5t55 13.5q70 0 114 -43t44 -115q0 -77 -48 -121.5t-124 -44.5q-71 0 -121 35.5t-62 101.5l97 25q5 -31 27 -50.5t54 -19.5q38 0 60 20.5t22 53.5t-22.5 54.5
t-59.5 21.5q-53 0 -77 -43l-97 18q23 80 43 201h105q-29 -93 -58 -142z" />
    <glyph glyph-name="uni04AB" unicode="&#x4ab;" horiz-adv-x="1126" 
d="M584 135q136 0 213.5 74.5t107.5 216.5l158 -59q-41 -184 -166 -285.5t-309 -101.5q-229 0 -369.5 141t-140.5 371q0 107 39 200.5t105 158.5t155.5 102.5t187.5 37.5q177 0 296.5 -92.5t154.5 -257.5l-162 -49q-23 116 -98 180t-193 64q-57 0 -112 -23t-100.5 -65
t-73 -109t-27.5 -147q0 -157 99.5 -257t234.5 -100zM524 -109q19 21 48 34.5t55 13.5q70 0 113.5 -42.5t43.5 -115.5q0 -77 -48 -121.5t-124 -44.5q-71 0 -120.5 35.5t-61.5 101.5l96 25q5 -31 27.5 -50.5t54.5 -19.5q38 0 60 20.5t22 53.5t-22.5 54.5t-59.5 21.5
q-24 0 -45.5 -12t-32.5 -31l-96 18q23 80 43 201h105q-29 -93 -58 -142z" />
    <glyph glyph-name="uni04AE" unicode="&#x4ae;" horiz-adv-x="1376" 
d="M254 1434l434 -678l447 678h215l-568 -844v-590h-188v590l-565 844h225z" />
    <glyph glyph-name="uni04AF" unicode="&#x4af;" horiz-adv-x="1058" 
d="M442 -406v406l-403 971h186l305 -772l304 772h186l-402 -971v-406h-176z" />
    <glyph glyph-name="uni04B0" unicode="&#x4b0;" horiz-adv-x="1376" 
d="M1350 1434l-471 -701h249v-143h-346v-590h-188v590h-344v143h248l-469 701h225l434 -678l447 678h215z" />
    <glyph glyph-name="uni04B1" unicode="&#x4b1;" horiz-adv-x="1058" 
d="M1020 971l-373 -903h176v-136h-205v-338h-176v338h-204v136h176l-375 903h186l305 -772l304 772h186z" />
    <glyph glyph-name="uni04B2" unicode="&#x4b2;" horiz-adv-x="1380" 
d="M37 0l543 778l-461 656h229l342 -516l350 516h222l-461 -656l542 -778h-223l-430 631l-430 -631h-223zM1208 -225v397h178v-397h-178z" />
    <glyph glyph-name="uni04B3" unicode="&#x4b3;" horiz-adv-x="958" 
d="M889 971l-311 -457l354 -514h-203l-250 375l-250 -375h-202l356 512l-315 459h206l205 -316l203 316h207zM797 -225v375h157v-375h-157z" />
    <glyph glyph-name="uni04B6" unicode="&#x4b6;" horiz-adv-x="1392" 
d="M1051 0v494q-71 -80 -179.5 -125t-240.5 -45q-226 0 -358 141t-132 371v598h189v-570q0 -176 90.5 -269t253.5 -93q206 0 377 207v725h188v-1434h-188zM1239 -225v397h178v-397h-178z" />
    <glyph glyph-name="uni04B7" unicode="&#x4b7;" horiz-adv-x="1165" 
d="M807 528v443h176v-971h-176v383q-50 -71 -136 -113.5t-200 -42.5q-158 0 -246 94t-88 254v396h176v-363q0 -112 56 -170.5t159 -58.5q85 0 151.5 36.5t127.5 112.5zM983 -225v375h158v-375h-158z" />
    <glyph glyph-name="uni04BA" unicode="&#x4ba;" horiz-adv-x="1392" 
d="M156 0v1434h188v-494q71 80 179 125t239 45q228 0 359.5 -140.5t131.5 -371.5v-598h-188v569q0 176 -90.5 269.5t-253.5 93.5q-209 0 -377 -207v-725h-188z" />
    <glyph glyph-name="uni04BB" unicode="&#x4bb;" horiz-adv-x="1136" 
d="M313 0h-176v1434h176v-668q41 105 132.5 165t209.5 60q159 0 252.5 -98t93.5 -264v-629h-178v588q0 123 -60 187.5t-171 64.5q-119 0 -199 -94.5t-80 -243.5v-502z" />
    <glyph glyph-name="uni04C0" unicode="&#x4c0;" horiz-adv-x="497" 
d="M156 0v1434h188v-1434h-188z" />
    <glyph glyph-name="uni04C1" unicode="&#x4c1;" horiz-adv-x="2054" 
d="M1296 748l723 -748h-256l-641 664v-664h-188v664l-643 -664h-256l723 748l-688 686h245l619 -623v623h188v-623l617 623h246zM1278 1821q0 -106 -70 -165t-180 -59t-180 59t-70 165q0 22 2 28h140l-2 -22q0 -45 30 -74t80 -29t80.5 29t30.5 74l-2 22h139q2 -6 2 -28z" />
    <glyph glyph-name="uni04C2" unicode="&#x4c2;" horiz-adv-x="1456" 
d="M47 0l449 512l-430 459h223l350 -391v391h178v-391l350 391h222l-428 -459l446 -512h-219l-371 434v-434h-178v434l-371 -434h-221zM979 1358q0 -105 -70 -164t-180 -59t-180 59t-70 164q0 22 2 28h140l-3 -22q0 -45 30.5 -73.5t80.5 -28.5t80.5 28.5t30.5 73.5l-2 22
h139q2 -6 2 -28z" />
    <glyph glyph-name="uni04CF" unicode="&#x4cf;" horiz-adv-x="450" 
d="M137 0v1434h176v-1434h-176z" />
    <glyph glyph-name="uni04D0" unicode="&#x4d0;" horiz-adv-x="1513" 
d="M27 0l600 1434h262l600 -1434h-209l-147 365h-750l-150 -365h-206zM451 537h612l-305 747zM1008 1821q0 -106 -70 -165t-180 -59t-180 59t-70 165q0 22 2 28h139l-2 -22q0 -45 30.5 -74t80.5 -29t80 29t30 74l-2 22h140q2 -6 2 -28z" />
    <glyph glyph-name="uni04D1" unicode="&#x4d1;" horiz-adv-x="1054" 
d="M92 276q0 145 99 223.5t262 78.5q104 0 206 -31l89 -25v101q0 104 -66.5 161.5t-177.5 57.5q-104 0 -171.5 -53.5t-86.5 -147.5l-160 45q30 141 140 223t278 82q197 0 305.5 -101t108.5 -282v-608h-170v154q-37 -79 -127.5 -126.5t-206.5 -47.5q-136 0 -230 79
q-92 83 -92 217zM748 362v21l-91 27q-102 30 -180 30q-95 0 -149 -39.5t-54 -113.5q0 -69 52 -110.5t147 -41.5q123 0 199 61.5t76 165.5zM754 1358q0 -105 -70 -164t-180 -59t-180 59t-70 164q0 22 2 28h139l-2 -22q0 -45 30.5 -73.5t80.5 -28.5t80 28.5t30 73.5l-2 22h140
q2 -6 2 -28z" />
    <glyph glyph-name="uni04D2" unicode="&#x4d2;" horiz-adv-x="1513" 
d="M27 0l600 1434h262l600 -1434h-209l-147 365h-750l-150 -365h-206zM451 537h612l-305 747zM487 1624v203h199v-203h-199zM829 1624v203h199v-203h-199z" />
    <glyph glyph-name="uni04D3" unicode="&#x4d3;" horiz-adv-x="1054" 
d="M92 276q0 145 99 223.5t262 78.5q104 0 206 -31l89 -25v101q0 104 -66.5 161.5t-177.5 57.5q-104 0 -171.5 -53.5t-86.5 -147.5l-160 45q30 141 140 223t278 82q197 0 305.5 -101t108.5 -282v-608h-170v154q-37 -79 -127.5 -126.5t-206.5 -47.5q-136 0 -230 79
q-92 83 -92 217zM748 362v21l-91 27q-102 30 -180 30q-95 0 -149 -39.5t-54 -113.5q0 -69 52 -110.5t147 -41.5q123 0 199 61.5t76 165.5zM231 1161v203h199v-203h-199zM573 1161v203h199v-203h-199z" />
    <glyph glyph-name="uni04D4" unicode="&#x4d4;" horiz-adv-x="1939" 
d="M1073 178h756v-178h-944v365h-461l-188 -365h-209l743 1434h1038v-179h-735v-424h674v-178h-674v-475zM885 537v720l-373 -720h373z" />
    <glyph glyph-name="uni04D5" unicode="&#x4d5;" horiz-adv-x="1728" 
d="M92 283q0 147 96.5 225t264.5 78h286v37q0 105 -64.5 162t-178.5 57q-103 0 -170 -50t-86 -141l-154 43q32 142 139 219.5t271 77.5q126 0 217 -44.5t139 -127.5q58 80 150 126t200 46q193 0 311 -112q121 -112 121 -301q0 -46 -12 -119h-702q1 -154 87.5 -240t221.5 -86
q219 0 280 219l152 -59q-51 -151 -159.5 -232t-272.5 -81q-137 0 -243 61t-157 170q-123 -231 -405 -231q-148 0 -240 86t-92 217zM918 586h538q2 6 2 28q0 102 -73.5 162t-186.5 60t-190 -67.5t-90 -182.5zM739 383v68h-252q-99 0 -158 -43.5t-59 -120.5q0 -73 51 -112.5
t142 -39.5q125 0 200.5 66.5t75.5 181.5z" />
    <glyph glyph-name="uni04D6" unicode="&#x4d6;" horiz-adv-x="1296" 
d="M156 1434h1009v-179h-821v-424h760v-178h-760v-475h842v-178h-1030v1434zM877 1821q0 -106 -70 -165t-180 -59t-180 59t-70 165q0 22 2 28h139l-2 -22q0 -45 30.5 -74t80.5 -29t80 29t30 74l-2 22h139q3 -9 3 -28z" />
    <glyph glyph-name="uni04D7" unicode="&#x4d7;" horiz-adv-x="1069" 
d="M848 352l153 -59q-50 -151 -160 -232t-274 -81q-216 0 -352.5 140t-136.5 372q0 139 57.5 252.5t164 180t241.5 66.5q195 0 313 -112q119 -110 119 -301q0 -64 -12 -119h-703q1 -153 88 -238.5t221 -85.5q220 0 281 217zM258 586h539l2 28q0 102 -73.5 162t-186.5 60
t-190.5 -67.5t-90.5 -182.5zM791 1358q0 -105 -70 -164t-180 -59t-180 59t-70 164q0 22 2 28h139l-2 -22q0 -45 30.5 -73.5t80.5 -28.5t80 28.5t30 73.5l-2 22h139q3 -9 3 -28z" />
    <glyph glyph-name="uni04D8" unicode="&#x4d8;" horiz-adv-x="1476" 
d="M1384 717q1 -152 -48.5 -288.5t-137.5 -236.5t-215.5 -157.5t-273.5 -54.5q-279 0 -455 169.5t-176 442.5q0 84 18 166h1096q-12 240 -153 379t-357 139q-155 0 -269 -91t-163 -239l-180 70q69 202 228.5 320t385.5 118q205 0 363.5 -90t247.5 -258t89 -389zM1182 588
h-893q-4 -46 -4 -51q0 -164 120 -271.5t308 -107.5t313 115.5t156 314.5z" />
    <glyph glyph-name="uni04D9" unicode="&#x4d9;" horiz-adv-x="1069" 
d="M221 618l-153 60q50 151 160 232t274 81q216 0 352.5 -140t136.5 -372q0 -139 -57.5 -252.5t-164 -180t-241.5 -66.5q-194 0 -313 110q-119 113 -119 303q0 59 13 119h702q-1 153 -88 238.5t-221 85.5q-220 0 -281 -218zM811 385h-539l-2 -29q0 -102 73.5 -161.5
t186.5 -59.5t190.5 67.5t90.5 182.5z" />
    <glyph glyph-name="uni04DA" unicode="&#x4da;" horiz-adv-x="1476" 
d="M1384 717q1 -152 -48.5 -288.5t-137.5 -236.5t-215.5 -157.5t-273.5 -54.5q-279 0 -455 169.5t-176 442.5q0 84 18 166h1096q-12 240 -153 379t-357 139q-155 0 -269 -91t-163 -239l-180 70q69 202 228.5 320t385.5 118q205 0 363.5 -90t247.5 -258t89 -389zM1182 588
h-893q-4 -46 -4 -51q0 -164 120 -271.5t308 -107.5t313 115.5t156 314.5zM412 1624v203h198v-203h-198zM754 1624v203h198v-203h-198z" />
    <glyph glyph-name="uni04DB" unicode="&#x4db;" horiz-adv-x="1069" 
d="M221 618l-153 60q50 151 160 232t274 81q216 0 352.5 -140t136.5 -372q0 -139 -57.5 -252.5t-164 -180t-241.5 -66.5q-194 0 -313 110q-119 113 -119 303q0 59 13 119h702q-1 153 -88 238.5t-221 85.5q-220 0 -281 -218zM811 385h-539l-2 -29q0 -102 73.5 -161.5
t186.5 -59.5t190.5 67.5t90.5 182.5zM256 1161v203h199v-203h-199zM598 1161v203h199v-203h-199z" />
    <glyph glyph-name="uni04DC" unicode="&#x4dc;" horiz-adv-x="2054" 
d="M1296 748l723 -748h-256l-641 664v-664h-188v664l-643 -664h-256l723 748l-688 686h245l619 -623v623h188v-623l617 623h246zM758 1624v203h198v-203h-198zM1100 1624v203h198v-203h-198z" />
    <glyph glyph-name="uni04DD" unicode="&#x4dd;" horiz-adv-x="1456" 
d="M47 0l449 512l-430 459h223l350 -391v391h178v-391l350 391h222l-428 -459l446 -512h-219l-371 434v-434h-178v434l-371 -434h-221zM457 1161v203h198v-203h-198zM799 1161v203h198v-203h-198z" />
    <glyph glyph-name="uni04DE" unicode="&#x4de;" horiz-adv-x="1191" 
d="M88 403l174 72q21 -150 106.5 -233.5t233.5 -83.5q138 0 218.5 60t80.5 175q0 116 -72 179t-192 63h-74v176h68q120 0 185 58t65 169q0 115 -73.5 176.5t-209.5 61.5q-117 0 -195 -66.5t-104 -189.5l-170 76q34 153 162 256q126 102 313 102q215 0 340 -108t125 -297
q0 -120 -60.5 -203t-166.5 -119q109 -26 178.5 -112.5t69.5 -213.5q0 -200 -138 -311q-137 -110 -356 -110q-211 0 -343 115.5t-165 307.5zM336 1624v203h199v-203h-199zM678 1624v203h199v-203h-199z" />
    <glyph glyph-name="uni04DF" unicode="&#x4df;" horiz-adv-x="925" 
d="M68 291l153 69q18 -104 80.5 -162.5t169.5 -58.5q93 0 147 39t54 111q0 59 -42.5 92t-115.5 33h-88v155h68q68 0 111.5 37t43.5 101t-46 97.5t-124 33.5q-159 0 -209 -176l-151 75q44 122 137 188t223 66q152 0 247 -74t95 -200q0 -83 -46 -142.5t-122 -80.5
q191 -44 191 -222q0 -128 -112 -210t-275 -82q-153 0 -258.5 86.5t-130.5 224.5zM209 1161v203h199v-203h-199zM551 1161v203h199v-203h-199z" />
    <glyph glyph-name="uni04E2" unicode="&#x4e2;" horiz-adv-x="1568" 
d="M1225 1303l-744 -1303h-325v1434h188v-1303l746 1303h323v-1434h-188v1303zM500 1794h520v-141h-520v141z" />
    <glyph glyph-name="uni04E3" unicode="&#x4e3;" horiz-adv-x="1179" 
d="M137 0v971h176v-799l459 799h272v-971h-178v799l-458 -799h-271zM328 1331h520v-141h-520v141z" />
    <glyph glyph-name="uni04E4" unicode="&#x4e4;" horiz-adv-x="1568" 
d="M1225 1303l-744 -1303h-325v1434h188v-1303l746 1303h323v-1434h-188v1303zM489 1624v203h199v-203h-199zM831 1624v203h199v-203h-199z" />
    <glyph glyph-name="uni04E5" unicode="&#x4e5;" horiz-adv-x="1179" 
d="M137 0v971h176v-799l459 799h272v-971h-178v799l-458 -799h-271zM317 1161v203h199v-203h-199zM659 1161v203h199v-203h-199z" />
    <glyph glyph-name="uni04E6" unicode="&#x4e6;" horiz-adv-x="1662" 
d="M831 1454q152 3 291 -56t238 -159t157 -237t56 -285q2 -149 -56 -286t-157 -237t-238 -158.5t-291 -55.5q-153 -3 -291.5 55.5t-237 158.5t-155.5 237t-55 286q-2 148 55 285t155.5 237t237 159t291.5 56zM831 158q152 0 275.5 69.5t195.5 197.5t72 292q0 123 -41.5 228
t-114 177t-172.5 113t-215 41q-235 0 -388.5 -156t-153.5 -405q0 -164 72 -292t195 -196.5t275 -68.5zM551 1624v203h199v-203h-199zM893 1624v203h199v-203h-199z" />
    <glyph glyph-name="uni04E7" unicode="&#x4e7;" horiz-adv-x="1138" 
d="M78 485q0 218 137 362t354 144q145 0 258 -66.5t174.5 -181.5t61.5 -258q0 -217 -139 -361t-355 -144q-217 0 -354 143.5t-137 361.5zM881 485q0 154 -88 248q-85 98 -224 98q-135 0 -223 -97t-88 -249t88 -249t223 -97q137 0 224.5 96.5t87.5 249.5zM297 1161v203h199
v-203h-199zM639 1161v203h199v-203h-199z" />
    <glyph glyph-name="uni04E8" unicode="&#x4e8;" horiz-adv-x="1662" 
d="M92 717q-2 148 55 285t155.5 237t237 159t291.5 56q152 3 291 -56t238 -159t157 -237t56 -285q2 -149 -56 -286t-157 -237t-238 -158.5t-291 -55.5q-153 -3 -291.5 55.5t-237 158.5t-155.5 237t-55 286zM295 797h1073q-25 216 -173.5 347.5t-363.5 131.5
q-214 0 -362.5 -130.5t-173.5 -348.5zM1368 637h-1073q24 -217 173.5 -348t362.5 -131q139 0 255 58t191 167.5t91 253.5z" />
    <glyph glyph-name="uni04E9" unicode="&#x4e9;" horiz-adv-x="1138" 
d="M78 483q0 219 137 363.5t354 144.5q219 0 356.5 -144.5t137.5 -363.5q0 -218 -138.5 -360.5t-355.5 -142.5q-218 0 -354.5 142t-136.5 361zM264 553h610q-19 127 -102.5 202.5t-202.5 75.5t-202.5 -75.5t-102.5 -202.5zM877 418h-613q19 -128 101.5 -203.5t203.5 -75.5
q122 0 205.5 76t102.5 203z" />
    <glyph glyph-name="uni04EA" unicode="&#x4ea;" horiz-adv-x="1662" 
d="M92 717q-2 148 55 285t155.5 237t237 159t291.5 56q152 3 291 -56t238 -159t157 -237t56 -285q2 -149 -56 -286t-157 -237t-238 -158.5t-291 -55.5q-153 -3 -291.5 55.5t-237 158.5t-155.5 237t-55 286zM295 797h1073q-25 216 -173.5 347.5t-363.5 131.5
q-214 0 -362.5 -130.5t-173.5 -348.5zM1368 637h-1073q24 -217 173.5 -348t362.5 -131q139 0 255 58t191 167.5t91 253.5zM561 1624v203h199v-203h-199zM903 1624v203h199v-203h-199z" />
    <glyph glyph-name="uni04EB" unicode="&#x4eb;" horiz-adv-x="1138" 
d="M78 483q0 219 137 363.5t354 144.5q219 0 356.5 -144.5t137.5 -363.5q0 -218 -138.5 -360.5t-355.5 -142.5q-218 0 -354.5 142t-136.5 361zM264 553h610q-19 127 -102.5 202.5t-202.5 75.5t-202.5 -75.5t-102.5 -202.5zM877 418h-613q19 -128 101.5 -203.5t203.5 -75.5
q122 0 205.5 76t102.5 203zM297 1161v203h199v-203h-199zM639 1161v203h199v-203h-199z" />
    <glyph glyph-name="uni04EC" unicode="&#x4ec;" horiz-adv-x="1591" 
d="M70 543l166 67q46 -214 182.5 -336t365.5 -122q212 0 357 127t166 354h-648v178h648q-27 214 -174 342.5t-349 128.5q-185 0 -306 -103.5t-159 -279.5l-172 78q59 207 218 342q163 135 426 135q203 3 367 -93.5t255 -266.5t88 -377q0 -159 -50 -294.5t-141.5 -233.5
t-227.5 -153.5t-300 -55.5q-288 0 -471 155q-182 154 -241 408zM520 1624v203h199v-203h-199zM862 1624v203h199v-203h-199z" />
    <glyph glyph-name="uni04ED" unicode="&#x4ed;" horiz-adv-x="1126" 
d="M1051 492q0 -230 -141 -371t-371 -141q-184 0 -309.5 102t-163.5 285l157 59q57 -291 322 -291q123 0 213 75t114 204h-356v155h356q-21 129 -112 199q-89 68 -197 68q-116 0 -191 -63.5t-100 -180.5l-159 49q38 167 157 258.5t299 91.5q204 0 343 -140t139 -359z
M287 1161v203h198v-203h-198zM629 1161v203h198v-203h-198z" />
    <glyph glyph-name="uni04EE" unicode="&#x4ee;" horiz-adv-x="1413" 
d="M244 0l354 543l-565 891h225l449 -719l450 719h223l-909 -1434h-227zM449 1794h520v-141h-520v141z" />
    <glyph glyph-name="uni04EF" unicode="&#x4ef;" horiz-adv-x="985" 
d="M770 971h188l-622 -1377h-189l240 531l-371 846h193l272 -639zM219 1331h520v-141h-520v141z" />
    <glyph glyph-name="uni04F0" unicode="&#x4f0;" horiz-adv-x="1413" 
d="M244 0l354 543l-565 891h225l449 -719l450 719h223l-909 -1434h-227zM438 1624v203h199v-203h-199zM780 1624v203h199v-203h-199z" />
    <glyph glyph-name="uni04F1" unicode="&#x4f1;" horiz-adv-x="985" 
d="M770 971h188l-622 -1377h-189l240 531l-371 846h193l272 -639zM209 1161v203h199v-203h-199zM551 1161v203h199v-203h-199z" />
    <glyph glyph-name="uni04F2" unicode="&#x4f2;" horiz-adv-x="1413" 
d="M244 0l354 543l-565 891h225l449 -719l450 719h223l-909 -1434h-227zM440 1599l178 273h240v-29l-248 -244h-170zM807 1599l178 273h240v-29l-248 -244h-170z" />
    <glyph glyph-name="uni04F3" unicode="&#x4f3;" horiz-adv-x="985" 
d="M770 971h188l-622 -1377h-189l240 531l-371 846h193l272 -639zM213 1137l178 272h240v-29l-248 -243h-170zM580 1137l178 272h239v-29l-247 -243h-170z" />
    <glyph glyph-name="uni04F4" unicode="&#x4f4;" horiz-adv-x="1392" 
d="M1051 0v494q-71 -80 -179.5 -125t-240.5 -45q-226 0 -358 141t-132 371v598h189v-570q0 -176 90.5 -269t253.5 -93q206 0 377 207v725h188v-1434h-188zM420 1624v203h198v-203h-198zM762 1624v203h199v-203h-199z" />
    <glyph glyph-name="uni04F5" unicode="&#x4f5;" horiz-adv-x="1120" 
d="M807 528v443h176v-971h-176v383q-50 -71 -136 -113.5t-200 -42.5q-158 0 -246 94t-88 254v396h176v-363q0 -112 56 -170.5t159 -58.5q85 0 151.5 36.5t127.5 112.5zM287 1161v203h198v-203h-198zM629 1161v203h198v-203h-198z" />
    <glyph glyph-name="uni04F8" unicode="&#x4f8;" horiz-adv-x="1906" 
d="M156 0v1434h188v-609h504q204 0 333.5 -111t129.5 -300q0 -188 -130 -301t-333 -113h-692zM344 178h498q122 0 197 65t75 171q0 105 -75 169t-197 64h-498v-469zM1565 0v1434h188v-1434h-188zM641 1624v203h199v-203h-199zM983 1624v203h199v-203h-199z" />
    <glyph glyph-name="uni04F9" unicode="&#x4f9;" horiz-adv-x="1472" 
d="M137 0v971h176v-350h289q147 0 235.5 -86.5t88.5 -219.5t-90 -224t-234 -91h-465zM313 160h281q72 0 116 41.5t44 107.5q0 67 -44 108.5t-116 41.5h-281v-299zM1159 971h176v-971h-176v971zM465 1161v203h199v-203h-199zM807 1161v203h199v-203h-199z" />
    <glyph glyph-name="uni0527" unicode="&#x527;" horiz-adv-x="1181" 
d="M313 0h-176v1434h176v-668q41 105 132.5 165t209.5 60q159 0 252.5 -98t93.5 -264v-629h-178v588q0 123 -60 187.5t-171 64.5q-119 0 -199 -94.5t-80 -243.5v-502zM1001 -225v375h158v-375h-158z" />
    <glyph glyph-name="uni0E3F" unicode="&#xe3f;" horiz-adv-x="1402" 
d="M1305 387q0 -169 -132 -278t-331 -109h-62v-201h-170v201h-454v1434h454v200h170v-200h21q205 0 328.5 -103.5t123.5 -269.5q0 -105 -58 -191t-157 -131q267 -85 267 -352zM338 1262v-441h272v441h-272zM813 1262h-33v-441h33q122 0 191 58.5t69 162.5q0 102 -72.5 161
t-187.5 59zM338 172h272v481h-272v-481zM1114 418q0 106 -74 170.5t-198 64.5h-62v-481h62q123 0 197.5 67t74.5 179z" />
    <glyph glyph-name="Wgrave" unicode="&#x1e80;" horiz-adv-x="2023" 
d="M373 0l-346 1434h198l305 -1309l318 1309h328l317 -1309l305 1309h199l-346 -1434h-316l-323 1313l-326 -1313h-313zM928 1599l-248 244v29h240l178 -273h-170z" />
    <glyph glyph-name="wgrave" unicode="&#x1e81;" horiz-adv-x="1517" 
d="M209 971l227 -799l219 799h207l219 -799l228 799h174l-289 -971h-219l-215 745l-215 -745h-221l-289 971h174zM674 1137l-248 243v29h240l178 -272h-170z" />
    <glyph glyph-name="Wacute" unicode="&#x1e82;" horiz-adv-x="2023" 
d="M373 0l-346 1434h198l305 -1309l318 1309h328l317 -1309l305 1309h199l-346 -1434h-316l-323 1313l-326 -1313h-313zM928 1599l178 273h240v-29l-248 -244h-170z" />
    <glyph glyph-name="wacute" unicode="&#x1e83;" horiz-adv-x="1517" 
d="M209 971l227 -799l219 799h207l219 -799l228 799h174l-289 -971h-219l-215 745l-215 -745h-221l-289 971h174zM676 1137l178 272h240v-29l-248 -243h-170z" />
    <glyph glyph-name="Wdieresis" unicode="&#x1e84;" horiz-adv-x="2023" 
d="M373 0l-346 1434h198l305 -1309l318 1309h328l317 -1309l305 1309h199l-346 -1434h-316l-323 1313l-326 -1313h-313zM739 1624v203h199v-203h-199zM1081 1624v203h199v-203h-199z" />
    <glyph glyph-name="wdieresis" unicode="&#x1e85;" horiz-adv-x="1517" 
d="M209 971l227 -799l219 799h207l219 -799l228 799h174l-289 -971h-219l-215 745l-215 -745h-221l-289 971h174zM487 1161v203h199v-203h-199zM829 1161v203h199v-203h-199z" />
    <glyph glyph-name="uni1E9E" unicode="&#x1e9e;" horiz-adv-x="1409" 
d="M399 238l164 94q75 -174 268 -174q126 0 208.5 78t82.5 206q0 129 -86 203q-83 74 -205 74q-60 0 -114.5 -21.5t-87.5 -54.5l-123 111l483 501h-332q-173 0 -250 -77.5t-77 -249.5v-928h-189v928q0 259 124 382.5t386 123.5h574v-179l-389 -397q16 8 63 8q174 0 293 -118
t119 -306q0 -204 -136.5 -332t-343.5 -128q-160 0 -269.5 67.5t-162.5 188.5z" />
    <glyph glyph-name="Ygrave" unicode="&#x1ef2;" horiz-adv-x="1376" 
d="M254 1434l434 -678l447 678h215l-568 -844v-590h-188v590l-565 844h225zM604 1599l-248 244v29h240l178 -273h-170z" />
    <glyph glyph-name="ygrave" unicode="&#x1ef3;" horiz-adv-x="985" 
d="M770 971h188l-622 -1377h-189l240 531l-371 846h193l272 -639zM395 1137l-248 243v29h240l178 -272h-170z" />
    <glyph glyph-name="endash" unicode="&#x2013;" horiz-adv-x="1312" 
d="M100 598h1112v-160h-1112v160z" />
    <glyph glyph-name="emdash" unicode="&#x2014;" horiz-adv-x="1814" 
d="M100 598h1614v-160h-1614v160z" />
    <glyph glyph-name="quoteleft" unicode="&#x2018;" horiz-adv-x="454" 
d="M313 989h-215v273q0 172 193 172h65v-107h-71q-80 0 -80 -61q0 -62 71 -62h37v-215z" />
    <glyph glyph-name="quoteright" unicode="&#x2019;" horiz-adv-x="454" 
d="M141 1434h215v-271q0 -174 -192 -174h-66v109h70q82 0 82 59q0 29 -19.5 45.5t-52.5 16.5h-37v215z" />
    <glyph glyph-name="quotesinglbase" unicode="&#x201a;" horiz-adv-x="454" 
d="M141 215h215v-272q0 -172 -192 -172h-66v106h70q82 0 82 62q0 29 -19.5 45t-52.5 16h-37v215z" />
    <glyph glyph-name="quotedblleft" unicode="&#x201c;" horiz-adv-x="782" 
d="M98 989v273q0 172 193 172h65v-107h-71q-80 0 -80 -61q0 -62 71 -62h37v-215h-215zM426 989v273q0 172 192 172h68v-107h-72q-79 0 -79 -61q0 -29 18.5 -45.5t50.5 -16.5h37v-215h-215z" />
    <glyph glyph-name="quotedblright" unicode="&#x201d;" horiz-adv-x="782" 
d="M98 989v109h70q82 0 82 59q0 29 -19.5 45.5t-52.5 16.5h-37v215h215v-271q0 -174 -192 -174h-66zM426 989v109h72q80 0 80 59q0 29 -19 45.5t-51 16.5h-37v215h215v-271q0 -174 -192 -174h-68z" />
    <glyph glyph-name="quotedblbase" unicode="&#x201e;" horiz-adv-x="804" 
d="M86 -229v106h72q80 0 80 62q0 29 -18.5 45t-51.5 16h-37v215h213v-272q0 -89 -50.5 -130.5t-139.5 -41.5h-68zM416 -229v106h71q37 0 58.5 16t21.5 46q0 61 -71 61h-37v215h215v-272q0 -172 -193 -172h-65z" />
    <glyph glyph-name="dagger" unicode="&#x2020;" horiz-adv-x="819" 
d="M338 553v606h-229v141h229v248h145v-248h228v-141h-228v-606h-145z" />
    <glyph glyph-name="daggerdbl" unicode="&#x2021;" horiz-adv-x="819" 
d="M338 553v276h-229v142h229v188h-229v141h229v248h145v-248h228v-141h-228v-188h228v-142h-228v-276h-145z" />
    <glyph glyph-name="bullet" unicode="&#x2022;" horiz-adv-x="509" 
d="M135 715h240v-242h-240v242z" />
    <glyph glyph-name="ellipsis" unicode="&#x2026;" horiz-adv-x="1261" 
d="M135 215h213v-215h-213v215zM524 215h213v-215h-213v215zM913 215h213v-215h-213v215z" />
    <glyph glyph-name="perthousand" unicode="&#x2030;" horiz-adv-x="2289" 
d="M78 1092q0 157 100 259.5t260 102.5t261.5 -102.5t101.5 -259.5t-101.5 -260t-261.5 -103t-260 103t-100 260zM647 1092q0 98 -57.5 159.5t-151.5 61.5q-92 0 -149.5 -61.5t-57.5 -159.5t57.5 -160t149.5 -62q93 0 151 61.5t58 160.5zM393 172l-104 107l1022 978
l104 -106zM920 342q0 157 101 260t261 103q92 0 166 -43t117 -119q45 76 118.5 119t165.5 43q160 0 261.5 -103t101.5 -260t-101.5 -259.5t-261.5 -102.5q-91 0 -165 43t-119 118q-43 -75 -117.5 -118t-165.5 -43q-160 0 -261 102.5t-101 259.5zM1489 342q0 98 -57.5 159.5
t-149.5 61.5q-94 0 -151.5 -61.5t-57.5 -159.5t57.5 -159.5t151.5 -61.5q92 0 149.5 61.5t57.5 159.5zM2058 342q0 98 -57.5 159.5t-151.5 61.5q-92 0 -149.5 -61.5t-57.5 -159.5t57.5 -159.5t149.5 -61.5q94 0 151.5 61.5t57.5 159.5z" />
    <glyph glyph-name="guilsinglleft" unicode="&#x2039;" horiz-adv-x="659" 
d="M518 184l-414 406v49l414 405h29v-196l-254 -219v-29l254 -219v-197h-29z" />
    <glyph glyph-name="guilsinglright" unicode="&#x203a;" horiz-adv-x="659" 
d="M115 184v197l254 219v29l-254 219v196h28l414 -405v-49l-414 -406h-28z" />
    <glyph glyph-name="uni203D" unicode="&#x203d;" horiz-adv-x="1159" 
d="M459 358v918q-96 -31 -149.5 -104.5t-53.5 -180.5q0 -94 59 -180l-141 -88q-88 125 -88 266q0 177 100 295q102 123 273 158v94h172v-84q205 -12 322.5 -131.5t117.5 -284.5q0 -269 -231 -389q-84 -44 -121 -69q-88 -59 -88 -183v-37h-172zM721 758q93 45 135.5 108
t42.5 160q0 111 -74 183t-194 83v-606q13 22 32 36.5t58 35.5zM438 0v215h213v-215h-213z" />
    <glyph glyph-name="uni2042" unicode="&#x2042;" horiz-adv-x="1896" 
d="M866 1481h164v-146l-63 -196l176 125l137 45l49 -156l-137 -45h-213l170 -123l84 -117l-133 -94l-84 117l-68 205l-67 -205l-84 -117l-135 94l86 117l170 123h-216l-135 45l49 156l138 -45l176 -125l-64 196v146zM539 -47h-164v145l63 197l-176 -125l-137 -45l-49 156
l135 45h215l-170 123l-86 116l135 94l84 -116l68 -205l67 205l84 116l133 -94l-84 -116l-170 -123h213l138 -45l-50 -156l-137 45l-176 125l64 -197v-145zM1522 -47h-164v145l63 197l-176 -125l-137 -45l-49 156l135 45h215l-170 123l-86 116l135 94l84 -116l68 -205l67 205
l84 116l133 -94l-84 -116l-170 -123h213l138 -45l-49 -156l-138 45l-176 125l64 -197v-145z" />
    <glyph glyph-name="fraction" unicode="&#x2044;" horiz-adv-x="290" 
d="M598 1212l90 -88l-995 -950l-92 88z" />
    <glyph glyph-name="uni2051" unicode="&#x2051;" horiz-adv-x="913" 
d="M539 -47h-164v145l63 197l-176 -125l-137 -45l-49 156l135 45h215l-170 123l-86 116l135 94l84 -116l68 -205l67 205l84 116l133 -94l-84 -116l-170 -123h213l138 -45l-50 -156l-137 45l-176 125l64 -197v-145zM375 1481h164v-146l-64 -196l176 125l137 45l50 -156
l-138 -45h-213l170 -123l84 -117l-133 -94l-84 117l-67 205l-68 -205l-84 -117l-135 94l86 117l170 123h-215l-135 45l49 156l137 -45l176 -125l-63 196v146z" />
    <glyph glyph-name="uni2055" unicode="&#x2055;" horiz-adv-x="1638" 
d="M1556 801v-168h-534l379 -379l-119 -119l-379 379v-534h-168v534l-379 -379l-118 119l378 379h-534v168h534l-378 379l118 118l379 -378v534h168v-534l379 378l119 -118l-379 -379h534z" />
    <glyph glyph-name="uni2070" unicode="&#x2070;" horiz-adv-x="751" 
d="M74 1085q0 163 85 260t218 97t218 -97t85 -260t-85 -259.5t-218 -96.5t-218 96.5t-85 259.5zM551 1085q0 115 -48 178.5t-126 63.5t-127 -63.5t-49 -178.5q0 -114 49 -177.5t127 -63.5q77 0 125.5 63.5t48.5 177.5z" />
    <glyph glyph-name="uni2074" unicode="&#x2074;" horiz-adv-x="614" 
d="M379 737v154h-328v131q79 76 111.5 158t32.5 209v45h124v-45q0 -242 -133 -381h193v211h125v-211h86v-117h-86v-154h-125z" />
    <glyph glyph-name="uni2075" unicode="&#x2075;" horiz-adv-x="647" 
d="M537 1434v-115h-332q0 -89 -25 -184q51 73 164 73q100 0 164.5 -61.5t64.5 -165.5q0 -116 -66.5 -184t-184.5 -68q-101 0 -171.5 54.5t-82.5 150.5l122 29q11 -55 45 -86t87 -31q60 0 93.5 34.5t33.5 92.5q0 56 -34 89.5t-93 33.5q-38 0 -72.5 -20.5t-46.5 -49.5l-127 35
q30 205 30 373h431z" />
    <glyph glyph-name="uni2076" unicode="&#x2076;" horiz-adv-x="667" 
d="M74 1087q0 159 73 257t201 98q99 0 160 -46t78 -132l-107 -29q-21 98 -135 98q-68 0 -109.5 -59.5t-41.5 -169.5v-12q21 45 67 72.5t105 27.5q103 0 166 -61.5t63 -161.5q0 -105 -68.5 -172.5t-173.5 -67.5q-133 0 -205.5 95.5t-72.5 262.5zM475 963q0 56 -35.5 90
t-91.5 34t-92.5 -34.5t-36.5 -89.5q0 -56 36.5 -90.5t92.5 -34.5t91.5 35t35.5 90z" />
    <glyph glyph-name="uni2077" unicode="&#x2077;" horiz-adv-x="577" 
d="M55 1434h467v-105q-109 -82 -163 -183t-54 -247q0 -77 12 -162h-124q-11 82 -11 142q0 142 45.5 247.5t139.5 192.5h-312v115z" />
    <glyph glyph-name="uni2078" unicode="&#x2078;" horiz-adv-x="647" 
d="M66 946q0 132 131 180q-93 47 -93 140q0 78 61 127t159 49t158.5 -49t60.5 -127q0 -93 -92 -140q131 -48 131 -180q0 -95 -69.5 -156t-188.5 -61t-188.5 61t-69.5 156zM430 1260q0 42 -28.5 64t-77.5 22t-79 -22.5t-30 -63.5q0 -40 30.5 -63t78.5 -23t77 22.5t29 63.5z
M459 954q0 54 -37 84.5t-98 30.5t-98.5 -30.5t-37.5 -84.5t38.5 -84t97.5 -30t97 30t38 84z" />
    <glyph glyph-name="uni2079" unicode="&#x2079;" horiz-adv-x="673" 
d="M74 926l102 32q12 -57 50 -88.5t98 -31.5q81 0 119 58.5t38 178.5v12q-21 -45 -66 -72.5t-104 -27.5q-101 0 -164 61.5t-63 155.5q0 107 68 172.5t174 65.5q132 0 203 -92t71 -258q0 -163 -72 -263t-204 -100q-102 0 -169 54.5t-81 142.5zM457 1212q0 55 -35.5 88
t-91.5 33t-91.5 -33t-35.5 -88t35.5 -87.5t91.5 -32.5q55 0 91 33.5t36 86.5z" />
    <glyph glyph-name="uni2080" unicode="&#x2080;" horiz-adv-x="751" 
d="M74 -57q0 163 85 259.5t218 96.5t218 -96.5t85 -259.5t-85 -260t-218 -97t-218 97t-85 260zM551 -57q0 115 -48 178t-126 63t-127 -63t-49 -178q0 -114 49.5 -178t126.5 -64t125.5 64t48.5 178z" />
    <glyph glyph-name="uni2081" unicode="&#x2081;" horiz-adv-x="432" 
d="M221 -406v521q-48 -99 -170 -109l-18 133q168 12 198 152h115v-697h-125z" />
    <glyph glyph-name="uni2082" unicode="&#x2082;" horiz-adv-x="604" 
d="M53 82q0 96 69 156.5t175 60.5q117 0 181.5 -57.5t64.5 -157.5q-1 -35 -6.5 -62.5t-20 -51.5t-25 -39t-38 -36t-42 -30.5t-53.5 -34.5q-63 -40 -90.5 -64t-38.5 -57h316v-115h-484q0 109 47.5 177.5t147.5 126.5q92 50 126 87.5t34 92.5q0 50 -32 78t-91 28
q-51 0 -84 -28.5t-33 -71.5q0 -47 29 -76l-99 -65q-53 59 -53 139z" />
    <glyph glyph-name="uni2083" unicode="&#x2083;" horiz-adv-x="632" 
d="M55 -211l117 55q8 -64 46 -100.5t99 -36.5q54 0 89.5 33.5t35.5 87.5q0 56 -32 89.5t-86 33.5q-48 0 -82 -27l-72 88l195 162h-273v117h443v-101l-170 -145h14q73 0 131.5 -59t58.5 -156q0 -108 -71 -176t-181 -68q-107 0 -175 55t-87 148z" />
    <glyph glyph-name="uni2084" unicode="&#x2084;" horiz-adv-x="614" 
d="M379 -406v154h-328v131q79 76 111.5 158t32.5 209v45h124v-45q0 -242 -133 -381h193v211h125v-211h86v-117h-86v-154h-125z" />
    <glyph glyph-name="uni2085" unicode="&#x2085;" horiz-adv-x="647" 
d="M537 291v-115h-332q0 -89 -25 -184q52 74 164 74q100 0 164.5 -62t64.5 -166q0 -116 -66.5 -184t-184.5 -68q-101 0 -171.5 54.5t-82.5 150.5l122 29q11 -55 45 -86t87 -31q60 0 93.5 34.5t33.5 92.5q0 56 -34 89.5t-93 33.5q-38 0 -72.5 -20.5t-46.5 -49.5l-127 35
q30 205 30 373h431z" />
    <glyph glyph-name="uni2086" unicode="&#x2086;" horiz-adv-x="667" 
d="M74 -55q0 159 73 256.5t201 97.5q99 0 160 -46t78 -132l-107 -29q-21 98 -135 98q-68 0 -109.5 -59.5t-41.5 -169.5v-12q21 45 67 72.5t105 27.5q103 0 166 -61.5t63 -161.5q0 -105 -68.5 -172.5t-173.5 -67.5q-133 0 -205.5 96t-72.5 263zM475 -180q0 56 -35.5 90.5
t-91.5 34.5t-92.5 -35t-36.5 -90q0 -56 36.5 -90.5t92.5 -34.5t91.5 35t35.5 90z" />
    <glyph glyph-name="uni2087" unicode="&#x2087;" horiz-adv-x="577" 
d="M55 291h467v-105q-109 -82 -163 -183t-54 -247q0 -76 12 -162h-124q-11 83 -11 142q0 142 45.5 247.5t139.5 192.5h-312v115z" />
    <glyph glyph-name="uni2088" unicode="&#x2088;" horiz-adv-x="647" 
d="M66 -197q0 133 131 181q-93 47 -93 139q0 78 61 127t159 49t158.5 -49t60.5 -127q0 -92 -92 -139q131 -48 131 -181q0 -95 -69.5 -156t-188.5 -61t-188.5 61t-69.5 156zM430 117q0 42 -28.5 64t-77.5 22t-79 -22.5t-30 -63.5q0 -40 30.5 -63t78.5 -23t77 22.5t29 63.5z
M459 -188q0 54 -37 84t-98 30q-62 0 -99 -30t-37 -84t38.5 -84.5t97.5 -30.5t97 30.5t38 84.5z" />
    <glyph glyph-name="uni2089" unicode="&#x2089;" horiz-adv-x="673" 
d="M74 -217l102 33q12 -57 50 -89t98 -32q81 0 119 58.5t38 178.5v13q-21 -45 -66 -73t-104 -28q-101 0 -164 61.5t-63 155.5q0 107 68 172.5t174 65.5q132 0 203 -92t71 -258q0 -163 -72 -263t-204 -100q-102 0 -169 54.5t-81 142.5zM457 70q0 55 -35.5 87.5t-91.5 32.5
t-91.5 -32.5t-35.5 -87.5t35.5 -88t91.5 -33q55 0 91 34t36 87z" />
    <glyph glyph-name="franc" unicode="&#x20a3;" horiz-adv-x="1284" 
d="M1180 1262h-813v-474h751v-172h-751v-198h311v-162h-311v-256h-183v256h-168v162h168v1016h996v-172z" />
    <glyph glyph-name="lira" unicode="&#x20a4;" horiz-adv-x="1290" 
d="M1073 289l158 -84q-95 -225 -336 -225q-95 0 -165 34t-134 101q-82 -135 -248 -135q-122 0 -190 65t-68 172q0 103 71 169.5t181 66.5q96 0 170 -47q-5 50 -37 118h-307v160h203q-57 74 -78 113h-187v161h125q-8 31 -8 84q0 185 132 298.5t327 113.5q189 0 308.5 -102
t144.5 -275l-183 -55q-17 124 -86.5 192t-183.5 68q-121 0 -195.5 -68t-74.5 -192q0 -34 6 -64h368v-161h-299l29 -41l47 -72h285v-160h-207q23 -77 23 -149q0 -53 -9 -96q69 -69 118 -98t112 -29q70 0 114.5 31.5t73.5 105.5zM494 225q-68 68 -140 68q-50 0 -79 -25.5
t-29 -64.5t28.5 -63.5t77.5 -24.5q50 0 86.5 29t55.5 81z" />
    <glyph glyph-name="uni20A9" unicode="&#x20a9;" horiz-adv-x="1886" 
d="M1860 813v-160h-226l-125 -653h-299l-137 653h-262l-135 -653h-299l-125 653h-225v160h194l-119 621h189l119 -621h262l127 621h286l129 -621h263l118 621h187l-119 -621h197zM844 813h196l-98 469zM535 152l102 501h-199zM1352 152l96 501h-201z" />
    <glyph glyph-name="dong" unicode="&#x20ab;" horiz-adv-x="1226" 
d="M1204 1290v-155h-166v-1135h-174v174q-52 -93 -136.5 -143.5t-195.5 -50.5q-201 0 -327.5 138.5t-126.5 360.5q0 226 126 369t324 143q114 0 202 -53.5t130 -142.5v340h-340v155h340v144h178v-144h166zM868 481q0 154 -93 252t-214 98q-127 0 -217 -95t-90 -255
q0 -158 90.5 -251t216.5 -93q58 0 112.5 23.5t98 66.5t70 109t26.5 145zM135 -324v156h903v-156h-903z" />
    <glyph glyph-name="Euro" unicode="&#x20ac;" horiz-adv-x="1708" 
d="M1473 610l167 -67q-59 -255 -243 -408q-183 -155 -471 -155q-261 0 -441 137q-181 138 -245 366h-203v160h174q-2 16 -2 74q0 8 4 74h-176v159h205q68 227 253.5 365.5t430.5 138.5q264 0 420 -135q159 -135 215 -342l-172 -78q-38 176 -158 279.5t-305 103.5
q-166 0 -297 -88.5t-191 -243.5h504v-159h-541q-4 -66 -4 -74t4 -74h541v-160h-508q55 -158 186 -244.5t306 -86.5q238 0 368 124q132 126 179 334z" />
    <glyph glyph-name="uni20AE" unicode="&#x20ae;" horiz-adv-x="1370" 
d="M1307 1262h-531v-314l172 90l74 -147l-246 -129v-129l172 90l74 -148l-246 -129v-446h-182v352l-176 -92l-74 148l250 131v129l-176 -93l-74 148l250 131v408h-531v172h1244v-172z" />
    <glyph glyph-name="uni20B4" unicode="&#x20b4;" horiz-adv-x="1366" 
d="M1171 907h134v-159h-1239v159h886q80 62 80 168q0 90 -80.5 148.5t-203.5 58.5q-260 0 -359 -238l-160 84q67 159 201 242.5t318 83.5q213 0 342 -103t129 -266q0 -99 -48 -178zM66 483v162h1239v-162h-877q-27 -41 -27 -100q0 -105 92 -168t242 -63q131 0 220 49
t159 157l141 -108q-175 -270 -524 -270q-230 0 -374 111t-144 290q0 52 16 102h-163z" />
    <glyph glyph-name="uni20B8" unicode="&#x20b8;" horiz-adv-x="1351" 
d="M63 1268v166h1225v-166h-1225zM584 0v975h-521v166h1225v-166h-520v-975h-184z" />
    <glyph glyph-name="uni20B9" unicode="&#x20b9;" horiz-adv-x="1140" 
d="M1065 1268h-201q54 -75 70 -168h131v-160h-131q-35 -186 -191 -274q101 -42 149.5 -122t49.5 -218q5 -132 18 -192t54 -105v-29h-215q-25 51 -36.5 123t-12.5 205q-1 151 -71 214.5t-216 63.5h-363v178h367q103 0 171 40.5t91 115.5h-629v160h629q-23 75 -91 115t-171 40
h-367v179h965v-166z" />
    <glyph glyph-name="uni20BA" unicode="&#x20ba;" horiz-adv-x="1310" 
d="M1239 475q0 -218 -133 -346.5t-369 -128.5h-446v403l-162 -84l-74 148l236 123v155l-162 -83l-74 147l236 123v502h184v-406l184 96l74 -147l-258 -135v-156l184 96l74 -147l-258 -135v-328h260q147 0 235.5 79.5t88.5 209.5q0 106 -64 188l162 86q82 -113 82 -260z" />
    <glyph glyph-name="uni20BD" unicode="&#x20bd;" horiz-adv-x="1384" 
d="M1290 1012q0 -85 -32.5 -161.5t-91 -134.5t-147 -92t-194.5 -34h-440v-176h332v-160h-332v-254h-182v254h-187v160h187v1020h622q216 0 340.5 -120.5t124.5 -301.5zM1098 1012q0 117 -77.5 183.5t-207.5 66.5h-428v-500h428q130 0 207.5 66.5t77.5 183.5z" />
    <glyph glyph-name="uni2113" unicode="&#x2113;" horiz-adv-x="1169" 
d="M799 418l157 -29q-32 -192 -139.5 -300.5t-267.5 -108.5q-147 0 -238.5 93.5t-111.5 260.5l-115 -23l-27 152q62 8 138 26q4 183 56.5 362t134.5 312.5t191.5 214t221.5 76.5q136 0 205 -75t69 -218q0 -244 -195.5 -455t-512.5 -323q7 -116 58 -183t130 -67q93 0 158 75
t88 210zM367 543q251 93 393.5 259t142.5 359q0 67 -29 103t-83 36q-95 4 -189.5 -103t-158.5 -284t-76 -370z" />
    <glyph glyph-name="uni2116" unicode="&#x2116;" horiz-adv-x="2672" 
d="M1612 948q0 218 137 362t354 144q145 0 258 -66.5t174.5 -181.5t61.5 -258q0 -217 -139 -361.5t-355 -144.5q-217 0 -354 144t-137 362zM344 1303v-1303h-188v1434h323l746 -1303v1303h188v-1434h-326zM2415 948q0 154 -88 248q-85 98 -224 98q-135 0 -223 -97t-88 -249
t88 -249t223 -97q137 0 224.5 96.5t87.5 249.5zM1677 160h852v-160h-852v160z" />
    <glyph glyph-name="uni2117" unicode="&#x2117;" horiz-adv-x="1097" 
d="M90 995q0 190 133.5 324.5t325.5 134.5t325.5 -134.5t133.5 -324.5q0 -124 -60.5 -229.5t-166 -167t-232.5 -61.5t-232.5 61.5t-166 167t-60.5 229.5zM915 995q0 155 -105 262t-261 107t-261.5 -107t-105.5 -262t105.5 -261.5t261.5 -106.5t261 106.5t105 261.5zM362 739
v514h244q79 0 123.5 -40.5t44.5 -112.5q0 -73 -44 -113.5t-124 -40.5h-151v-207h-93zM455 1026h143q37 0 58.5 19t21.5 55t-21.5 55t-58.5 19h-143v-148z" />
    <glyph glyph-name="uni2120" unicode="&#x2120;" horiz-adv-x="1251" 
d="M72 1065l82 47q27 -115 137 -115q45 0 74.5 21t29.5 53q0 30 -26 48t-90 28q-175 24 -175 149q0 63 53.5 104.5t131.5 41.5q154 0 188 -119l-76 -43q-14 42 -39.5 60t-72.5 18q-38 0 -65 -18.5t-27 -43.5q0 -28 28.5 -44t93.5 -27q90 -12 132.5 -48t42.5 -106
q0 -72 -56 -116t-147 -44q-83 0 -142 40t-77 114zM575 920v514h170l132 -428l133 428h170v-514h-95v448l-143 -448h-129l-143 448v-448h-95z" />
    <glyph glyph-name="trademark" unicode="&#x2122;" horiz-adv-x="1259" 
d="M254 920v428h-182v86h456v-86h-180v-428h-94zM584 920v514h172l131 -428l131 428h172v-514h-96v448l-144 -448h-129l-143 448v-448h-94z" />
    <glyph glyph-name="uni2126" unicode="&#x2126;" horiz-adv-x="1591" 
d="M1499 774q0 -192 -96 -350q-94 -154 -236 -252h279v-172h-557v162q165 85 291 241q125 155 125 357q0 223 -145 369.5t-365 146.5q-219 0 -364.5 -147t-145.5 -369q0 -202 125 -357q126 -156 292 -241v-162h-557v172h277q-142 98 -236 252q-94 155 -94 350
q-2 141 52 267.5t147.5 218t225 144t278.5 50.5q150 2 282 -50.5t225 -144t145.5 -218t51.5 -267.5z" />
    <glyph glyph-name="estimated" unicode="&#x212e;" horiz-adv-x="1611" 
d="M1513 655h-1146v-286q67 -110 187.5 -172t272.5 -62q198 0 339.5 98.5t197.5 268.5l149 -62q-72 -206 -256 -333t-430 -127q-154 -3 -292.5 55.5t-236 158.5t-154 237t-54.5 286q-3 152 53 289.5t154 237t236.5 156.5t293.5 54q142 2 272 -52t223.5 -146.5t147.5 -221.5
t52 -270q0 -60 -9 -109zM367 1071v-266h880v266q-62 103 -179.5 165t-250.5 62q-145 0 -261 -59.5t-189 -167.5z" />
    <glyph glyph-name="uni2153" unicode="&#x2153;" horiz-adv-x="1355" 
d="M221 737v520q-48 -98 -170 -108l-18 133q168 12 198 152h115v-697h-125zM1030 1212l90 -88l-995 -950l-92 88zM778 195l117 55q8 -64 46 -100.5t99 -36.5q55 0 90 33.5t35 86.5q0 56 -32 89.5t-86 33.5q-49 0 -82 -26l-72 88l194 162h-272v116h442v-100l-170 -145h15
q73 0 131.5 -59t58.5 -156q0 -108 -71 -176t-181 -68q-107 0 -175 55t-87 148z" />
    <glyph glyph-name="uni2154" unicode="&#x2154;" horiz-adv-x="1527" 
d="M53 1225q0 96 69 156.5t175 60.5q117 0 181.5 -57.5t64.5 -157.5q-1 -35 -6.5 -62.5t-20 -51.5t-25 -39t-38 -36t-42 -30.5t-53.5 -34.5q-63 -40 -90.5 -64t-38.5 -57h316v-115h-484q0 109 47.5 177t147.5 126q92 50 126 88t34 93q0 50 -32 78t-91 28q-51 0 -84 -28.5
t-33 -71.5q0 -47 29 -76l-99 -66q-53 59 -53 140zM1202 1212l90 -88l-995 -950l-92 88zM950 195l117 55q8 -64 46 -100.5t99 -36.5q55 0 90 33.5t35 86.5q0 56 -32 89.5t-86 33.5q-49 0 -82 -26l-72 88l195 162h-273v116h443v-100l-170 -145h14q73 0 131.5 -59t58.5 -156
q0 -108 -71 -176t-181 -68q-107 0 -175 55t-87 148z" />
    <glyph glyph-name="oneeighth" unicode="&#x215b;" horiz-adv-x="1370" 
d="M221 737v520q-48 -98 -170 -108l-18 133q168 12 198 152h115v-697h-125zM1030 1212l90 -88l-995 -950l-92 88zM788 209q0 131 132 180q-93 47 -93 139q0 78 61 127.5t159 49.5t158.5 -49.5t60.5 -127.5q0 -92 -92 -139q131 -48 131 -180q0 -95 -69.5 -156t-188.5 -61
t-189 61t-70 156zM1153 522q0 42 -28.5 64t-77.5 22t-79 -22.5t-30 -63.5q0 -40 30.5 -63t78.5 -23t77 22.5t29 63.5zM1182 217q0 54 -37 84.5t-98 30.5t-98.5 -30.5t-37.5 -84.5t38.5 -84.5t97.5 -30.5t97 30.5t38 84.5z" />
    <glyph glyph-name="threeeighths" unicode="&#x215c;" horiz-adv-x="1570" 
d="M55 932l117 55q8 -64 46 -100.5t99 -36.5q54 0 89.5 33.5t35.5 87.5q0 56 -32 89.5t-86 33.5q-48 0 -82 -27l-72 88l195 162h-273v117h443v-101l-170 -145h14q73 0 131.5 -59t58.5 -156q0 -108 -71 -176t-181 -68q-107 0 -175 55t-87 148zM1231 1212l90 -88l-995 -950
l-93 88zM989 209q0 132 131 180q-92 47 -92 139q0 78 60.5 127.5t158.5 49.5t158.5 -49.5t60.5 -127.5q0 -92 -92 -139q131 -48 131 -180q0 -95 -69.5 -156t-188.5 -61t-188.5 61t-69.5 156zM1354 522q0 42 -29 64t-78 22t-78.5 -22t-29.5 -64q0 -40 30 -63t78 -23t77.5 23
t29.5 63zM1382 217q0 54 -37 84.5t-98 30.5t-98 -30.5t-37 -84.5t38 -84.5t97 -30.5t97 30.5t38 84.5z" />
    <glyph glyph-name="fiveeighths" unicode="&#x215d;" horiz-adv-x="1585" 
d="M537 1434v-115h-332q0 -89 -25 -184q51 73 164 73q100 0 164.5 -61.5t64.5 -165.5q0 -116 -66.5 -184t-184.5 -68q-101 0 -171.5 54.5t-82.5 150.5l122 29q11 -55 45 -86t87 -31q60 0 93.5 34.5t33.5 92.5q0 56 -34 89.5t-93 33.5q-38 0 -72.5 -20.5t-46.5 -49.5l-127 35
q30 205 30 373h431zM1245 1212l90 -88l-995 -950l-92 88zM1004 209q0 132 131 180q-93 47 -93 139q0 78 61 127.5t159 49.5t158.5 -49.5t60.5 -127.5q0 -92 -92 -139q131 -48 131 -180q0 -95 -69.5 -156t-188.5 -61t-188.5 61t-69.5 156zM1368 522q0 42 -28.5 64t-77.5 22
t-79 -22.5t-30 -63.5q0 -40 30.5 -63t78.5 -23t77 22.5t29 63.5zM1397 217q0 54 -37 84.5t-98 30.5t-98.5 -30.5t-37.5 -84.5t38.5 -84.5t97.5 -30.5t97 30.5t38 84.5z" />
    <glyph glyph-name="seveneighths" unicode="&#x215e;" horiz-adv-x="1515" 
d="M55 1434h467v-105q-109 -82 -163 -183t-54 -247q0 -77 12 -162h-124q-11 82 -11 142q0 142 45.5 247.5t139.5 192.5h-312v115zM1176 1212l90 -88l-996 -950l-92 88zM934 209q0 132 131 180q-92 47 -92 139q0 78 60.5 127.5t158.5 49.5t158.5 -49.5t60.5 -127.5
q0 -92 -92 -139q131 -48 131 -180q0 -95 -69.5 -156t-188.5 -61t-188.5 61t-69.5 156zM1298 522q0 42 -28.5 64t-77.5 22t-79 -22.5t-30 -63.5q0 -40 30.5 -63t78.5 -23t77 22.5t29 63.5zM1327 217q0 54 -37 84.5t-98 30.5t-98 -30.5t-37 -84.5t38 -84.5t97 -30.5t97 30.5
t38 84.5z" />
    <glyph glyph-name="uni2160" unicode="&#x2160;" horiz-adv-x="1189" 
d="M1108 178v-178h-1026v178h420v1077h-420v179h1026v-179h-418v-1077h418z" />
    <glyph glyph-name="uni2161" unicode="&#x2161;" horiz-adv-x="1798" 
d="M82 0v178h420v1077h-420v179h1634v-179h-420v-1077h420v-178h-1634zM690 178h418v1077h-418v-1077z" />
    <glyph glyph-name="uni2162" unicode="&#x2162;" horiz-adv-x="2404" 
d="M82 0v178h420v1077h-420v179h2240v-179h-417v-1077h417v-178h-2240zM690 178h418v1077h-418v-1077zM1296 178h420v1077h-420v-1077z" />
    <glyph glyph-name="uni2163" unicode="&#x2163;" horiz-adv-x="2404" 
d="M82 0v178h420v1077h-420v179h2240v-179h-262l-358 -1077h620v-178h-2240zM690 178h637l-358 1077h-279v-1077zM1516 172l350 1083h-701z" />
    <glyph glyph-name="uni2164" unicode="&#x2164;" horiz-adv-x="1779" 
d="M82 0v178h620l-358 1077h-262v179h1616v-179h-262l-359 -1077h621v-178h-1616zM889 172l350 1083h-700z" />
    <glyph glyph-name="uni2165" unicode="&#x2165;" horiz-adv-x="2404" 
d="M82 0v178h620l-358 1077h-262v179h2240v-179h-417v-1077h417v-178h-2240zM889 172l350 1083h-700zM1077 178h639v1077h-280z" />
    <glyph glyph-name="uni2166" unicode="&#x2166;" horiz-adv-x="3012" 
d="M82 0v178h620l-358 1077h-262v179h2849v-179h-420v-1077h420v-178h-2849zM889 172l350 1083h-700zM1077 178h639v1077h-280zM1905 178h417v1077h-417v-1077z" />
    <glyph glyph-name="uni2167" unicode="&#x2167;" horiz-adv-x="3618" 
d="M82 0v178h620l-358 1077h-262v179h3455v-179h-418v-1077h418v-178h-3455zM889 172l350 1083h-700zM1077 178h639v1077h-280zM1905 178h417v1077h-417v-1077zM2511 178h420v1077h-420v-1077z" />
    <glyph glyph-name="uni2168" unicode="&#x2168;" horiz-adv-x="2404" 
d="M82 0v178h420v1077h-420v179h2240v-179h-309l-387 -538l387 -539h309v-178h-2240zM690 178h318l387 539l-387 538h-318v-1077zM1511 862l273 393h-547zM1237 178h547l-273 393z" />
    <glyph glyph-name="uni2169" unicode="&#x2169;" horiz-adv-x="1787" 
d="M82 0v178h309l387 539l-387 538h-309v179h1624v-179h-309l-387 -538l387 -539h309v-178h-1624zM895 862l272 393h-546zM621 178h546l-272 393z" />
    <glyph glyph-name="uni216A" unicode="&#x216a;" horiz-adv-x="2404" 
d="M82 0v178h309l387 539l-387 538h-309v179h2240v-179h-417v-1077h417v-178h-2240zM895 862l272 393h-546zM1397 178h319v1077h-319l-387 -538zM621 178h546l-272 393z" />
    <glyph glyph-name="uni216B" unicode="&#x216b;" horiz-adv-x="3012" 
d="M82 0v178h309l387 539l-387 538h-309v179h2849v-179h-420v-1077h420v-178h-2849zM895 862l272 393h-546zM1397 178h319v1077h-319l-387 -538zM1905 178h417v1077h-417v-1077zM621 178h546l-272 393z" />
    <glyph glyph-name="uni216C" unicode="&#x216c;" horiz-adv-x="1476" 
d="M82 0v178h246v1077h-246v179h670v-179h-236v-1077h690v295h189v-473h-1313z" />
    <glyph glyph-name="uni216D" unicode="&#x216d;" horiz-adv-x="1599" 
d="M82 717q-3 153 51.5 291.5t148.5 236.5t225 155t275 54q172 0 304 -68t186 -186v234h174v-541h-168q-32 179 -158.5 284t-314.5 105q-232 0 -379 -154.5t-147 -410.5q0 -262 144 -413.5t376 -151.5q231 0 368.5 122.5t182.5 335.5l168 -67q-57 -253 -246 -408t-471 -155
q-210 -3 -376.5 94.5t-256 266.5t-86.5 376z" />
    <glyph glyph-name="uni216E" unicode="&#x216e;" horiz-adv-x="1587" 
d="M82 0v176h246v1081h-246v177h715q223 0 384.5 -93t242.5 -255t81 -375q0 -154 -48 -284t-137 -225t-223.5 -148.5t-299.5 -53.5h-715zM516 178h281q248 0 385 146q135 147 135 387q0 255 -135.5 399.5t-384.5 144.5h-281v-1077z" />
    <glyph glyph-name="uni216F" unicode="&#x216f;" horiz-adv-x="2256" 
d="M82 0v178h246v1077h-246v179h571l475 -1266l476 1266h571v-179h-246v-1077h246v-178h-680v178h246v1088l-486 -1266h-251l-488 1266v-1088h246v-178h-680z" />
    </font>
</defs>
</svg>
